Rangoon (2018) Dual Audio Hindi 720p UNCUT HDRip 700MB ESubs | Dã Sữ | hotspot shield download
 


 

Filecrypt zeigt vereinzelt Files als "n/a". Die Downloads sind trotzdem komplett.

DNS SERVER AENDERNum der staatlichen Zensur zu umgehen. Sollten wir von eurem Provider geseprrt werden, nutzt den TOR BROWSER oder ändert euren DNS SERVER.

Filmwünsche können bei uns im Forum abgegeben werden

Wir Speichern Nicht




 
 
 
Top Releases
Dunkirk.2017.IMAX.German.DTS...
Summer.Of.84.GERMAN.2018.DL....
Summer.Of.84.GERMAN.2018.DL....
Summer.of.84.2018.German.AC3...
Burning.2.On.Ice.2016.GERMAN...
Abgang.mit.Stil.2017.German....
Burning.2.On.Ice.2016.GERMAN...
Burning.2.On.Ice.2016.GERMAN...
Burning.2.On.Ice.2016.GERMAN...
Constantine.City.of.Demons.2...

Cinedubs
Searching.2018.German.AC3MD....
Searching.2018.German.AC3MD....
211.Cops.Under.Fire.2018.Ger...
211.Cops.Under.Fire.2018.Ger...
The.Watcher.Willkommen.im.Mo...
The.Watcher.Willkommen.im.Mo...
MEG.Biss.bald.2018.German.AC...
MEG.Biss.bald.2018.German.AC...
Mamma.Mia.2.Here.We.Go.Again...
Mamma.Mia.2.Here.We.Go.Again...

Neuerscheinungen 2017-18
Skyscraper.2018.3D.HSBS.Germ...
Fuenf.Freunde.und.das.Tal.de...
Death.Race.4.Beyond.Anarchy....
Death.Race.4.Beyond.Anarchy....
Super.Heroes.Aquaman.Rage.of...
Sick.for.Toys.2018.German.DL...
Presence.Es.ist.hier.2015.MU...
Gods.of.Egypt.2016.German.AC...
Haensel.und.Gretel.Hexenjaeg...
Nach.einer.wahren.Geschichte...

XXX
Yonitale.18.10.05.Christin.Y...
TrueAnal.18.09.30.Ana.Foxxx....
Throated.18.10.05.Eliza.Ibar...
Yonitale.18.10.03.Katya.Clov...
WankItNow.17.11.20.Ruby.Summ...
ThisGirlSucks.18.10.03.Augus...
WankItNow.18.09.30.Georgie.L...
WankItNow.18.10.02.Roxy.R.I....
WildOnCam.18.10.01.Kate.Kenn...
WebYoung.18.10.05.Adria.Rae....
WcpClub.18.10.05.Sexfeene.Ro...
Yanks.18.10.04.Penny.Lay.And...
WankItNow.18.10.01.Jamie.T.J...
Tiny4K.18.10.04.Addee.Kate.P...
WetAndPissy.18.10.02.Emma.De...
WhiteGhetto.18.10.02.Raylene...
TrickyOldTeacher.18.10.04.Ma...
X-Art.18.09.30.Kendall.Rae.A...
WickedPictures.Squirt.XXX.72...
WickedPictures.Squirt.XXX.10...

3D
Skyscraper.2018.German.DTSD....
Jurassic.World.Das.gefallene...
Jurassic.World.Das.gefallene...
Best.of.3D.vol.10.-.12.GERMA...
Die.Biene.Maja.2.Die.Honigsp...
Sharknado.6.The.Last.One.3D....
Solo.A.Star.Wars.Story.3D.20...
Solo.A.Star.Wars.Story.3D.20...
Die.Biene.Maja.2.Die.Honigsp...
Avengers.Infinity.War.3D.201...
Avengers.Infinity.War.3D.201...
Rampage.Big.Meets.Bigger.3D....
Rampage.Big.Meets.Bigger.3D....
Rampage.Big.Meets.Bigger.3D....
Winter.Games.3D.2013.DUAL.CO...

Old_Stuff
Britney.Spears.Live.The.Femm...
Buffy.The.Vampire.Slayer.199...
IMAX.Ride.Around.The.World.2...
Schimanski.-.Duisburg.Ruhror...
Akte.X.S02.German.DTS.DL.108...
How.I.Met.Your.Mother.S02.Ge...
Akte.X.S01.German.DTS.DL.108...
Den.Himmel.gibts.echt.DL.108...
Vikings.S02.German.DL.1080p....
Be.Kind.Rewind.Abgedreht.200...
Be.Kind.Rewind.Abgedreht.200...
Dracula.The.Dark.Lord.2012.G...
21.2008.German.DL.1080p.BluR...
Achtung.fertig.WK.Swissgerma...
The.Ouija.Exorcism.2015.MULT...

Filme
Jupiter.Ascending.2015.OPEN....
Happy.Death.Day.2017.OPEN.MA...
Zombieland.2009.OPEN.MATTE.G...
The.Executor.Der.Vollstrecke...
The.Exorcism.Tapes.Geheiligt...
Killing.Bono.2011.German.DL....
Zombieland.2009.German.DTS.D...
Ab.Tak.Chhappan.2004.German....
Sie.waren.Sechs.1941.German....
Amerikanisches.Idyll.2016.Ge...
Volt.2016.German.DTS.1080p.B...
The.End.of.the.Tour.2015.GER...
The.End.Of.The.World.2010.Ge...
The.English.Teacher.Eine.Lek...
Burning.2.On.Ice.2016.German...
Kung.Fu.Monk.2010.German.DL....
Seidenstruempfe.1957.German....
The.East.2013.German.AC3D.DL...
The.Entitled.2011.German.DL....
The.Entity.Sieh.Nicht.Hin.20...
Liebe.1962.1962.German.1080p...
Die.Nacht.1961.German.AC3D.7...
An.American.Werewolf.in.Lond...
Die.Simpsons.S29.GERMAN.DUBB...

 
 
Jupiter.Ascending.2015.OPEN.MATTE.German.DTSD.DL.1080p.WEB.h264-OpenM

Jahr: 2015
Genre: Action, Abenteuer, Sci-Fi
Sprache: Deutsch DTS | Englisch DTS
Laufzeit: 2h 7mn
Bitrate: 10.6 Mbps
Format: MKV
Größe: 9.42 GiB
Release:

Beschreibung:

Jupiter Jones wurde unter dem Nachthimmel geboren – man sagt ihr eine große Zukunft voraus. Als erwachsene Frau träumt Jupiter von den Sternen, wird aber immer wieder vom nüchternen Alltag eingeholt, denn sie bekommt nichts auf die Reihe und jobbt als Putzfrau. Erst als der genetisch manipulierte Ex-Soldat Caine auf der Erde landet, um sie zu finden, beginnt Jupiter zu ahnen, welches Schicksal ihr von Geburt an vorherbestimmt ist: Ihre Gene weisen sie als Anwärterin auf ein außergewöhnliches Erbe aus, das den gesamten Kosmos aus den Angeln heben könnte.

 

Open Matte Verion = keine schwarzen Balken oben und unten



Complete name                            : jupiterascending.om-1080.mkv
Format                                   : Matroska
Format version                           : Version 4 / Version 2
File size                                : 9.42 GiB
Duration                                 : 2h 7mn
Overall bit rate                         : 10.6 Mbps
Encoded date                             : UTC 2018-10-10 02:21:18
Writing application                      : mkvmerge v25.0.0 ('Prog Noir') 64-bit
Writing library                          : libebml v1.3.6 + libmatroska v1.4.9
DURATION                                 : 02:04:56.750000000
NUMBER_OF_FRAMES                         : 1815
NUMBER_OF_BYTES                          : 50465
_STATISTICS_WRITING_APP                  : mkvmerge v25.0.0 ('Prog Noir') 64-bit
_STATISTICS_WRITING_DATE_UTC             : 2018-10-10 02:21:18
_STATISTICS_TAGS                         : BPS DURATION NUMBER_OF_FRAMES NUMBER_OF_BYTES

Video
ID                                       : 1
Format                                   : AVC
Format/Info                              : Advanced Video Codec
Format profile                           : [email protected]
Format settings, CABAC                   : Yes
Format settings, ReFrames                : 4 frames
Codec ID                                 : V_MPEG4/ISO/AVC
Duration                                 : 2h 7mn
Bit rate                                 : 8 206 Kbps
Width                                    : 1 920 pixels
Height                                   : 1 080 pixels
Display aspect ratio                     : 16:9
Frame rate mode                          : Constant
Frame rate                               : 23.976 fps
Color space                              : YUV
Chroma subsampling                       : 4:2:0
Bit depth                                : 8 bits
Scan type                                : Progressive
Bits/(Pixel*Frame)                       : 0.165
Stream size                              : 7.32 GiB (78%)
Default                                  : Yes
Forced                                   : No
Color primaries                          : BT.709
Transfer characteristics                 : BT.709
Matrix coefficients                      : BT.709

Audio #1
ID                                       : 2
Format                                   : DTS
Format/Info                              : Digital Theater Systems
Mode                                     : 16
Format settings, Endianness              : Big
Codec ID                                 : A_DTS
Duration                                 : 2h 7mn
Bit rate mode                            : Constant
Bit rate                                 : 1 509 Kbps
Channel(s)                               : 6 channels
Channel positions                        : Front: L C R, Side: L R, LFE
Sampling rate                            : 48.0 KHz
Bit depth                                : 24 bits
Compression mode                         : Lossy
Stream size                              : 1.35 GiB (14%)
Language                                 : German
Default                                  : Yes
Forced                                   : No

Audio #2
ID                                       : 3
Format                                   : E-AC-3
Format/Info                              : Audio Coding 3
Format settings, Endianness              : Big
Codec ID                                 : A_EAC3
Duration                                 : 2h 7mn
Bit rate mode                            : Constant
Bit rate                                 : 640 Kbps
Channel(s)                               : 6 channels
Channel positions                        : Front: L C R, Side: L R, LFE
Sampling rate                            : 48.0 KHz
Compression mode                         : Lossy
Stream size                              : 585 MiB (6%)
Language                                 : English
Default                                  : No
Forced                                   : No

Text #1
ID                                       : 4
Format                                   : UTF-8
Codec ID                                 : S_TEXT/UTF8
Codec ID/Info                            : UTF-8 Plain Text
Title                                    : forced
Language                                 : German
Default                                  : Yes
Forced                                   : Yes

Text #2
ID                                       : 5
Format                                   : UTF-8
Codec ID                                 : S_TEXT/UTF8
Codec ID/Info                            : UTF-8 Plain Text
Title                                    : complete
Language                                 : English
Default                                  : No
Forced                                   : No


Download:
Share Online Share OnlineShare OnlineShare Online
 

Kommentare