Search Forums | Харви Кейтель | La Petite Italie
 


 

DNS SERVER AENDERNum der staatlichen Zensur zu umgehen. Sollten wir von eurem Provider geseprrt werden, nutzt den TOR BROWSER oder ändert euren DNS SERVER.

Filmwünsche können bei uns im Forum abgegeben werden

Wir Speichern Nicht




 
 
 
Top Releases
Anon.2018.German.AC3.DL.1080...
Destination.Wedding.2018.Ger...
Destination.Wedding.2018.Ger...
Madame.Aurora.und.der.Duft.v...
Jurassic.World.Das.gefallene...
Jurassic.World.Das.gefallene...
Rampage.Big.meets.Bigger.201...
Rampage.Big.meets.Bigger.201...
Operation.Finale.2018.German...
Operation.Finale.2018.German...

Cinedubs
Ant-Man.and.the.Wasp.German....
Ant-Man.and.the.Wasp.German....
Ant-Man.and.the.Wasp.2018.Ge...
Ant-Man.and.the.Wasp.2018.Ge...
Skyscraper.German.DL.AC3.Dub...
Skyscraper.German.DL.AC3.Dub...
Hotel.Artemis.2018.GERMAN.DL...
Hotel.Artemis.2018.GERMAN.DL...
The.First.Purge.2018.German....
The.First.Purge.2018.German....

Neuerscheinungen 2017-18
Nach.einer.wahren.Geschichte...
Nach.einer.wahren.Geschichte...
Ball.der.Hexen.2017.German.D...
Ball.der.Hexen.2017.German.D...
Das.etruskische.Laecheln.The...
Elvira.Herrscherin.der.Dunke...
Max.Steel.2016.German.AC3.DL...
Cold.Skin.Insel.der.Kreature...
Fuenf.Freunde.und.das.Tal.de...
Fuenf.Freunde.und.das.Tal.de...

XXX
ATKHairy.18.09.17.Helen.Volg...
MyFriendsHotMom.18.09.20.Bri...
PlayboyPlus.18.09.16.Mashup....
PlayboyPlus.18.09.17.Kit.Rys...
Nubiles.18.09.18.Emma.Fantas...
PlumperPass.18.09.17.Asstyn....
Petite.18.09.19.Lenna.Lux.Le...
AbbyWinters.18.09.18.Rose.K....
OnlyBlowJob.18.09.20.Baby.Ni...
AbbyWinters.18.09.18.Sonya.I...
Nubiles.18.09.17.Mary.Lin.Uk...
Nubiles.18.09.18.Asuna.Fit.A...
InTheCrack.E1450.Lulu.Love.X...
NubileFilms.18.09.17.Veronic...
MyFirstSexTeacher.18.09.19.D...
PlayboyPlus.18.09.18.Angel.C...
Poolside.Orgies.XXX.720p.WEB...
NewSensations.Love.In.The.Di...
MyVeryFirstTime.18.09.16.Mia...
PlayboyPlus.18.09.20.Miss.Zi...

3D
Jurassic.World.Das.gefallene...
Jurassic.World.Das.gefallene...
Best.of.3D.vol.10.-.12.GERMA...
Die.Biene.Maja.2.Die.Honigsp...
Sharknado.6.The.Last.One.3D....
Solo.A.Star.Wars.Story.3D.20...
Solo.A.Star.Wars.Story.3D.20...
Die.Biene.Maja.2.Die.Honigsp...
Avengers.Infinity.War.3D.201...
Avengers.Infinity.War.3D.201...
Rampage.Big.Meets.Bigger.3D....
Rampage.Big.Meets.Bigger.3D....
Rampage.Big.Meets.Bigger.3D....
Winter.Games.3D.2013.DUAL.CO...
Tomb.Raider.3D.2018.German.7...

Old_Stuff
Britney.Spears.Live.The.Femm...
Buffy.The.Vampire.Slayer.199...
IMAX.Ride.Around.The.World.2...
Schimanski.-.Duisburg.Ruhror...
Akte.X.S02.German.DTS.DL.108...
How.I.Met.Your.Mother.S02.Ge...
Akte.X.S01.German.DTS.DL.108...
Den.Himmel.gibts.echt.DL.108...
Vikings.S02.German.DL.1080p....
Be.Kind.Rewind.Abgedreht.200...
Be.Kind.Rewind.Abgedreht.200...
Dracula.The.Dark.Lord.2012.G...
21.2008.German.DL.1080p.BluR...
Achtung.fertig.WK.Swissgerma...
The.Ouija.Exorcism.2015.MULT...

Filme
Wie.schmeckt.das.Blut.von.Dr...
Die.Sieben.Pranken.Des.Satan...
Die.Sieben.Pranken.Des.Satan...
Lionheart.Richard.Loewenherz...
Es.tanzt.die.Goettin.1944.Ge...
The.Originals.S05.GERMAN.720...
Marvels.Agents.of.S.H.I.E.L....
Marvels.Agents.of.S.H.I.E.L....
MotoGP.Moto2.Moto3.Saison.20...
MotoGP.Moto2.Moto3.Saison.20...
Loving.Pablo.2017.German.DL....
Watchmen.2009.Ultimate.Cut.G...
Babylon.Berlin.S01.D01.GERMA...
Counterpart.S01.COMPLETE.Ger...
Counterpart.S01.COMPLETE.Ger...
Snowfall.S02.GERMAN.DUBBED.7...
The.Purge.S01.German.DD+51.D...
The.Purge.S01.German.DD+51.D...
The.Outpost.S01.GERMAN.720p....
Breakfast.on.Pluto.2005.Germ...
Miss.Undercover.2000.German....
Maennersache.2009.German.AC3...
Der.Moerder.wohnt.in.Nr.21.1...
Tenebrae.UNCUT.GERMAN.1982.D...

 
 
Nach.einer.wahren.Geschichte.2017.German.DL.1080p.BluRay.x264-ENCOUNTERS

Sprache: Deutsch DTS | Englisch DTS
Laufzeit: 1h 41mn
Bitrate: 6 211 Kbps
Format: MKV
Größe: 4.39 GiB
Release:

Beschreibung:

In Roman Polanskis fesselndem Psychothriller geraten die französischen Charakterdarstellerinnen Emmanuelle Seigner und Eva Green in ein hintersinniges Spiel um Wahrheit und Fiktion.Seit ihr sehr persönlicher Roman über ihre Mutter zu einem Bestseller wurde, leidet die Pariser Autorin Delphine (Emmanuelle Seigner) an einer Schreibblockade. Die endlosen Lesetouren, Signierstunden und vereinzelte Drohbriefe setzen ihr zu. Doch als sie die attraktive Elle (Eva Green) trifft, ändert sich das. Schnell fasst Delphine Vertrauen zu der geheimnisvollen Frau, die als Ghostwriter ihr Geld verdient. Selbstlos übernimmt Elle immer mehr Aufgaben für Delphine, beantwortet Mails und zieht sogar bei ihr ein. Als Delphine schließlich feststellt, dass ihr die Kontrolle entgleitet, muss sie sich fragen: Wer ist Elle wirklich? Will sie Delphines Leere füllen oder stiehlt sie ihr das Leben?



Complete name                            : encounters-naeiwage_1080p.mkv
Format                                   : Matroska
Format version                           : Version 4 / Version 2
File size                                : 4.39 GiB
Duration                                 : 1h 41mn
Overall bit rate                         : 6 211 Kbps
Encoded date                             : UTC 2018-10-05 16:40:04
Writing application                      : mkvmerge v19.0.0 ('Brave Captain') 64-bit
Writing library                          : libebml v1.3.5 + libmatroska v1.4.8
DURATION                                 : 01:41:05.184000000
NUMBER_OF_FRAMES                         : 568611
NUMBER_OF_BYTES                          : 1144045332
_STATISTICS_WRITING_APP                  : mkvmerge v19.0.0 ('Brave Captain') 64-bit
_STATISTICS_WRITING_DATE_UTC             : 2018-10-05 16:40:04
_STATISTICS_TAGS                         : BPS DURATION NUMBER_OF_FRAMES NUMBER_OF_BYTES

Video
ID                                       : 1
Format                                   : AVC
Format/Info                              : Advanced Video Codec
Format profile                           : [email protected]
Format settings, CABAC                   : Yes
Format settings, ReFrames                : 5 frames
Codec ID                                 : V_MPEG4/ISO/AVC
Duration                                 : 1h 41mn
Bit rate                                 : 3 069 Kbps
Width                                    : 1 920 pixels
Height                                   : 800 pixels
Display aspect ratio                     : 2.40:1
Frame rate mode                          : Constant
Frame rate                               : 23.976 fps
Color space                              : YUV
Chroma subsampling                       : 4:2:0
Bit depth                                : 8 bits
Scan type                                : Progressive
Bits/(Pixel*Frame)                       : 0.083
Stream size                              : 2.17 GiB (49%)
Title                                    : encounters-naeiwage_1080p
Writing library                          : x264 core 155 r2901 7d0ff22
Encoding settings                        : cabac=1 / ref=5 / deblock=1:-1:-1 / analyse=0x3:0x133 / me=umh / subme=7 / psy=1 / psy_rd=1.00:0.15 / mixed_ref=1 / me_range=16 / chroma_me=1 / trellis=1 / 8x8dct=1 / cqm=0 / deadzone=21,11 / fast_pskip=0 / chroma_qp_offset=-3 / threads=24 / lookahead_threads=4 / sliced_threads=0 / nr=0 / decimate=1 / interlaced=0 / bluray_compat=0 / constrained_intra=0 / bframes=3 / b_pyramid=2 / b_adapt=1 / b_bias=0 / direct=1 / weightb=1 / open_gop=0 / weightp=2 / keyint=250 / keyint_min=23 / scenecut=40 / intra_refresh=0 / rc_lookahead=40 / rc=crf / mbtree=1 / crf=20.0 / qcomp=0.60 / qpmin=0 / qpmax=69 / qpstep=4 / ip_ratio=1.40 / aq=1:1.00
Default                                  : Yes
Forced                                   : No

Audio #1
ID                                       : 2
Format                                   : DTS
Format/Info                              : Digital Theater Systems
Mode                                     : 16
Format settings, Endianness              : Big
Codec ID                                 : A_DTS
Duration                                 : 1h 41mn
Bit rate mode                            : Constant
Bit rate                                 : 1 509 Kbps
Channel(s)                               : 6 channels
Channel positions                        : Front: L C R, Side: L R, LFE
Sampling rate                            : 48.0 KHz
Bit depth                                : 24 bits
Compression mode                         : Lossy
Stream size                              : 1.07 GiB (24%)
Title                                    : German DTS 5.1 @ 1 509 Kbps
Language                                 : German
Default                                  : Yes
Forced                                   : No

Audio #2
ID                                       : 3
Format                                   : DTS
Format/Info                              : Digital Theater Systems
Mode                                     : 16
Format settings, Endianness              : Big
Codec ID                                 : A_DTS
Duration                                 : 1h 41mn
Bit rate mode                            : Constant
Bit rate                                 : 1 509 Kbps
Channel(s)                               : 6 channels
Channel positions                        : Front: L C R, Side: L R, LFE
Sampling rate                            : 48.0 KHz
Bit depth                                : 24 bits
Compression mode                         : Lossy
Stream size                              : 1.07 GiB (24%)
Title                                    : English DTS 5.1 @ 1 509 Kbps
Language                                 : English
Default                                  : No
Forced                                   : No


Download:
Share Online Share OnlineShare OnlineShare Online
 

Kommentare