mary brock jones by a heart divided | PrinterShare apk mod | Capitulo 5×05
 


 

DNS SERVER AENDERNum der staatlichen Zensur zu umgehen. Sollten wir von eurem Provider geseprrt werden, nutzt den TOR BROWSER oder ändert euren DNS SERVER.

Filmwünsche können bei uns im Forum abgegeben werden

Wir Speichern Nicht




 
 
 
Top Releases
Anon.2018.German.AC3.DL.1080...
Destination.Wedding.2018.Ger...
Destination.Wedding.2018.Ger...
Madame.Aurora.und.der.Duft.v...
Jurassic.World.Das.gefallene...
Jurassic.World.Das.gefallene...
Rampage.Big.meets.Bigger.201...
Rampage.Big.meets.Bigger.201...
Operation.Finale.2018.German...
Operation.Finale.2018.German...

Cinedubs
Ant-Man.and.the.Wasp.German....
Ant-Man.and.the.Wasp.German....
Ant-Man.and.the.Wasp.2018.Ge...
Ant-Man.and.the.Wasp.2018.Ge...
Skyscraper.German.DL.AC3.Dub...
Skyscraper.German.DL.AC3.Dub...
Hotel.Artemis.2018.GERMAN.DL...
Hotel.Artemis.2018.GERMAN.DL...
The.First.Purge.2018.German....
The.First.Purge.2018.German....

Neuerscheinungen 2017-18
Cold.Skin.Insel.der.Kreature...
Fuenf.Freunde.und.das.Tal.de...
Fuenf.Freunde.und.das.Tal.de...
Presence.Es.ist.hier.The.Dea...
King.Arthur.Excalibur.Rising...
Die.Supermonster.retten.Hall...
Die.Supermonster.retten.Hall...
Private.Life.2018.German.DL....
Private.Life.2018.German.DL....
Rommel.der.Wuestenfuchs.1951...

XXX
JeshByJesh.18.09.20.Abella.D...
MomKnowsBest.18.09.20.Emma.H...
KrissKiss.18.05.29.Teen.Fuck...
MilfHunter.18.09.17.Rachel.S...
MilfsLikeItBig.18.09.20.Arie...
KarupsHA.18.09.17.Bambi.Blac...
MetArt.18.09.18.Kay.J.Im.Eat...
MetArtX.18.09.20.Yasmina.1.P...
MyFamilyPies.18.09.17.Lexi.L...
LaCochonne.18.09.18.Anna.Pol...
MeloneChallenge.18.09.18.Wen...
KrissKiss.18.05.16.Teen.Slop...
MilfsLikeItBig.18.09.19.Ambe...
LittleCapriceDreams.18.09.11...
LadyVoyeurs.18.09.19.Bunny.M...
KrissKiss.18.05.17.Teen.Hand...
KrissKiss.18.05.20.Teen.Give...
MommyBlowsBest.18.09.19.Dell...
KrissKiss.18.05.30.Teen.Deep...
MetArtX.18.09.18.Foxy.Salt.L...

3D
Jurassic.World.Das.gefallene...
Jurassic.World.Das.gefallene...
Best.of.3D.vol.10.-.12.GERMA...
Die.Biene.Maja.2.Die.Honigsp...
Sharknado.6.The.Last.One.3D....
Solo.A.Star.Wars.Story.3D.20...
Solo.A.Star.Wars.Story.3D.20...
Die.Biene.Maja.2.Die.Honigsp...
Avengers.Infinity.War.3D.201...
Avengers.Infinity.War.3D.201...
Rampage.Big.Meets.Bigger.3D....
Rampage.Big.Meets.Bigger.3D....
Rampage.Big.Meets.Bigger.3D....
Winter.Games.3D.2013.DUAL.CO...
Tomb.Raider.3D.2018.German.7...

Old_Stuff
Britney.Spears.Live.The.Femm...
Buffy.The.Vampire.Slayer.199...
IMAX.Ride.Around.The.World.2...
Schimanski.-.Duisburg.Ruhror...
Akte.X.S02.German.DTS.DL.108...
How.I.Met.Your.Mother.S02.Ge...
Akte.X.S01.German.DTS.DL.108...
Den.Himmel.gibts.echt.DL.108...
Vikings.S02.German.DL.1080p....
Be.Kind.Rewind.Abgedreht.200...
Be.Kind.Rewind.Abgedreht.200...
Dracula.The.Dark.Lord.2012.G...
21.2008.German.DL.1080p.BluR...
Achtung.fertig.WK.Swissgerma...
The.Ouija.Exorcism.2015.MULT...

Filme
Der.Prinz.von.Aegypten.1998....
Der.Prinz.von.Aegypten.1998....
Laurel.und.Hardy.Collection....
Zwischen.zwei.Leben.2017.GER...
2.Fast.2.Furious.2003.German...
Manhattan.Project.Der.atomar...
Bodycheck.1986.German.AC3.DL...
The.13th.Floor.Abwaerts.in.d...
Loewengrube.1989.S01D01-3.S0...
Schweinchen.Babe.in.der.gros...
Schlagzeilen.The.Paper.1994....
Plane.Dead.-.Zombies.on.a.Pl...
Die.Faelscher.2007.German.10...
Racer.and.the.Jailbird.2017....
Rommel.der.Wuestenfuchs.1951...
Daemonen.der.Seele.1972.Germ...
Daemonen.der.Seele.1972.Germ...
Formel.1.Saison.2018.GERMAN....
King.Arthur.Excalibur.Rising...
King.Arthur.Excalibur.Rising...
The.Man.In.The.High.Castle.S...
The.Man.In.The.High.Castle.S...
Humans.S03.GERMAN.DL.720p.HD...
The.Handmaids.Tale.S02.Germa...

 
 
Cold.Skin.Insel.der.Kreaturen.2017.German.AC3.DL.1080p.BluRay.x265-FuN

Jahr: 2017
Genre: Abenteuer | Horror | Sci-Fi
Sprache: Deutsch AC3 | Englisch AC3
Laufzeit: 1h 46mn
Bitrate: 2 828 Kbps
Format: MKV
Größe: 2.10 GiB
Release:

Beschreibung:

Ein Wetteroffizier wird bei Leuchtturmwärter Gruner auf einer einsamen Insel abgesetzt. Noch ahnt er nicht, welches fantastische Grauen ihn dort erwartet. Bereits in der ersten Nacht beginnt ein brutaler blutiger Angriff geheimnisvoller Wesen aus dem Meer. Scheinbar verschweigt Gruner ein dunkles Geheimnis. Es entbrennt ein erbitterter Kampf um Leben, Tod und eine verhängnisvolle Liebe... Fesselndes Kino von „Crucifixion“ und „Hitman“ Regisseur Xavier Gens. Mit David Oakes aus „Die Borgias“ und Ray Stevenson aus der „Thor“- Reihe. Creature Design von Arturo Balseiro, der schon in Guillermo del Toros „Pans Labyrinth“ mit seinen fantastischen Kreationen überzeugte.




Format                                   : Matroska
Format version                           : Version 4 / Version 2
File size                                : 2.10 GiB
Duration                                 : 1h 46mn
Overall bit rate                         : 2 828 Kbps
Encoded date                             : UTC 2018-10-02 01:07:21
Writing application                      : HandBrake 20180926214903-4981e11-master 2018092701
Writing library                          : Lavf58.12.100

Video
ID                                       : 1
Format                                   : HEVC
Format/Info                              : High Efficiency Video Coding
Format profile                           : [email protected]
Codec ID                                 : V_MPEGH/ISO/HEVC
Duration                                 : 1h 46mn
Bit rate                                 : 2 003 Kbps
Width                                    : 1 920 pixels
Height                                   : 804 pixels
Display aspect ratio                     : 2.40:1
Frame rate mode                          : Constant
Frame rate                               : 24.000 fps
Color space                              : YUV
Chroma subsampling                       : 4:2:0
Bit depth                                : 8 bits
Bits/(Pixel*Frame)                       : 0.054
Stream size                              : 1.49 GiB (71%)
Writing library                          : x265 2.8:[Windows][GCC 7.1.0][64 bit] 8bit+10bit+12bit
Encoding settings                        : cpuid=1111039 / frame-threads=3 / numa-pools=8 / wpp / no-pmode / no-pme / no-psnr / no-ssim / log-level=2 / input-csp=1 / input-res=1920x804 / interlace=0 / total-frames=0 / level-idc=0 / high-tier=1 / uhd-bd=0 / ref=3 / no-allow-non-conformance / no-repeat-headers / annexb / no-aud / no-hrd / info / hash=0 / no-temporal-layers / open-gop / min-keyint=24 / keyint=240 / gop-lookahead=0 / bframes=4 / b-adapt=2 / b-pyramid / bframe-bias=0 / rc-lookahead=20 / lookahead-slices=5 / scenecut=40 / radl=0 / no-intra-refresh / ctu=64 / min-cu-size=8 / no-rect / no-amp / max-tu-size=32 / tu-inter-depth=1 / tu-intra-depth=1 / limit-tu=0 / rdoq-level=0 / dynamic-rd=0.00 / no-ssim-rd / signhide / no-tskip / nr-intra=0 / nr-inter=0 / no-constrained-intra / no-strong-intra-smoothing / max-merge=2 / limit-refs=3 / no-limit-modes / me=1 / subme=2 / merange=57 / temporal-mvp / weightp / no-weightb / no-analyze-src-pics / deblock=0:0 / no-sao / no-sao-non-deblock / rd=3 / no-early-skip / rskip / no-fast-intra / no-tskip-fast / no-cu-lossless / no-b-intra / no-splitrd-skip / rdpenalty=0 / psy-rd=2.00 / psy-rdoq=0.00 / no-rd-refine / no-lossless / cbqpoffs=0 / crqpoffs=0 / rc=crf / crf=20.0 / qcomp=0.60 / qpstep=4 / stats-write=0 / stats-read=0 / ipratio=1.40 / pbratio=1.30 / aq-mode=1 / aq-strength=1.00 / cutree / zone-count=0 / no-strict-cbr / qg-size=32 / no-rc-grain / qpmax=69 / qpmin=0 / no-const-vbv / sar=1 / overscan=0 / videoformat=5 / range=0 / colorprim=1 / transfer=1 / colormatrix=1 / chromaloc=0 / display-window=0 / max-cll=0,0 / min-luma=0 / max-luma=255 / log2-max-poc-lsb=8 / vui-timing-info / vui-hrd-info / slices=1 / no-opt-qp-pps / no-opt-ref-list-length-pps / no-multi-pass-opt-rps / scenecut-bias=0.05 / no-opt-cu-delta-qp / no-aq-motion / no-hdr / no-hdr-opt / no-dhdr10-opt / no-idr-recovery-sei / analysis-reuse-level=5 / scale-factor=0 / refine-intra=0 / refine-inter=0 / refine-mv=0 / no-limit-sao / ctu-info=0 / no-lowpass-dct / refine-mv-type=0 / copy-pic=1 / max-ausize-factor=1.0 / no-dynamic-refine / no-single-sei
Default                                  : Yes
Forced                                   : No
DURATION                                 : 01:46:24.047000000

Audio #1
ID                                       : 2
Format                                   : AC-3
Format/Info                              : Audio Coding 3
Mode extension                           : CM (complete main)
Format settings, Endianness              : Big
Codec ID                                 : A_AC3
Duration                                 : 1h 46mn
Bit rate mode                            : Constant
Bit rate                                 : 384 Kbps
Channel(s)                               : 6 channels
Channel positions                        : Front: L C R, Side: L R, LFE
Sampling rate                            : 48.0 KHz
Bit depth                                : 16 bits
Compression mode                         : Lossy
Delay relative to video                  : -5ms
Stream size                              : 292 MiB (14%)
Title                                    : Surround
Language                                 : German
Default                                  : Yes
Forced                                   : No
DURATION                                 : 01:46:24.032000000

Audio #2
ID                                       : 3
Format                                   : AC-3
Format/Info                              : Audio Coding 3
Mode extension                           : CM (complete main)
Format settings, Endianness              : Big
Codec ID                                 : A_AC3
Duration                                 : 1h 46mn
Bit rate mode                            : Constant
Bit rate                                 : 384 Kbps
Channel(s)                               : 6 channels
Channel positions                        : Front: L C R, Side: L R, LFE
Sampling rate                            : 48.0 KHz
Bit depth                                : 16 bits
Compression mode                         : Lossy
Delay relative to video                  : -5ms
Stream size                              : 292 MiB (14%)
Title                                    : Surround
Language                                 : English
Default                                  : No
Forced                                   : No
DURATION                                 : 01:46:24.032000000

Text
ID                                       : 4
Format                                   : ASS
Codec ID                                 : S_TEXT/ASS
Codec ID/Info                            : Advanced Sub Station Alpha
Compression mode                         : Lossless
Language                                 : German
Default                                  : Yes
Forced                                   : Yes
DURATION                                 : 01:28:41.548000000



Download:
Share Online Share OnlineShare OnlineShare Online
 

Kommentare