Printer & Scanner & Fax | 2017 hd movies | EHGBooks
 


 

DNS SERVER AENDERNum der staatlichen Zensur zu umgehen. Sollten wir von eurem Provider geseprrt werden, nutzt den TOR BROWSER oder ändert euren DNS SERVER.

Filmwünsche können bei uns im Forum abgegeben werden

Wir Speichern Nicht




 
 
 
Top Releases
Anon.2018.German.AC3.DL.1080...
Destination.Wedding.2018.Ger...
Destination.Wedding.2018.Ger...
Madame.Aurora.und.der.Duft.v...
Jurassic.World.Das.gefallene...
Jurassic.World.Das.gefallene...
Rampage.Big.meets.Bigger.201...
Rampage.Big.meets.Bigger.201...
Operation.Finale.2018.German...
Operation.Finale.2018.German...

Cinedubs
Ant-Man.and.the.Wasp.German....
Ant-Man.and.the.Wasp.German....
Ant-Man.and.the.Wasp.2018.Ge...
Ant-Man.and.the.Wasp.2018.Ge...
Skyscraper.German.DL.AC3.Dub...
Skyscraper.German.DL.AC3.Dub...
Hotel.Artemis.2018.GERMAN.DL...
Hotel.Artemis.2018.GERMAN.DL...
The.First.Purge.2018.German....
The.First.Purge.2018.German....

Neuerscheinungen 2017-18
Fuenf.Freunde.und.das.Tal.de...
Fuenf.Freunde.und.das.Tal.de...
Presence.Es.ist.hier.The.Dea...
King.Arthur.Excalibur.Rising...
Die.Supermonster.retten.Hall...
Die.Supermonster.retten.Hall...
Private.Life.2018.German.DL....
Private.Life.2018.German.DL....
Rommel.der.Wuestenfuchs.1951...
Lake.Placid.Legacy.2018.Germ...

XXX
JeshByJesh.18.09.20.Abella.D...
MomKnowsBest.18.09.20.Emma.H...
KrissKiss.18.05.29.Teen.Fuck...
MilfHunter.18.09.17.Rachel.S...
MilfsLikeItBig.18.09.20.Arie...
KarupsHA.18.09.17.Bambi.Blac...
MetArt.18.09.18.Kay.J.Im.Eat...
MetArtX.18.09.20.Yasmina.1.P...
MyFamilyPies.18.09.17.Lexi.L...
LaCochonne.18.09.18.Anna.Pol...
MeloneChallenge.18.09.18.Wen...
KrissKiss.18.05.16.Teen.Slop...
MilfsLikeItBig.18.09.19.Ambe...
LittleCapriceDreams.18.09.11...
LadyVoyeurs.18.09.19.Bunny.M...
KrissKiss.18.05.17.Teen.Hand...
KrissKiss.18.05.20.Teen.Give...
MommyBlowsBest.18.09.19.Dell...
KrissKiss.18.05.30.Teen.Deep...
MetArtX.18.09.18.Foxy.Salt.L...

3D
Jurassic.World.Das.gefallene...
Jurassic.World.Das.gefallene...
Best.of.3D.vol.10.-.12.GERMA...
Die.Biene.Maja.2.Die.Honigsp...
Sharknado.6.The.Last.One.3D....
Solo.A.Star.Wars.Story.3D.20...
Solo.A.Star.Wars.Story.3D.20...
Die.Biene.Maja.2.Die.Honigsp...
Avengers.Infinity.War.3D.201...
Avengers.Infinity.War.3D.201...
Rampage.Big.Meets.Bigger.3D....
Rampage.Big.Meets.Bigger.3D....
Rampage.Big.Meets.Bigger.3D....
Winter.Games.3D.2013.DUAL.CO...
Tomb.Raider.3D.2018.German.7...

Old_Stuff
Britney.Spears.Live.The.Femm...
Buffy.The.Vampire.Slayer.199...
IMAX.Ride.Around.The.World.2...
Schimanski.-.Duisburg.Ruhror...
Akte.X.S02.German.DTS.DL.108...
How.I.Met.Your.Mother.S02.Ge...
Akte.X.S01.German.DTS.DL.108...
Den.Himmel.gibts.echt.DL.108...
Vikings.S02.German.DL.1080p....
Be.Kind.Rewind.Abgedreht.200...
Be.Kind.Rewind.Abgedreht.200...
Dracula.The.Dark.Lord.2012.G...
21.2008.German.DL.1080p.BluR...
Achtung.fertig.WK.Swissgerma...
The.Ouija.Exorcism.2015.MULT...

Filme
Der.Prinz.von.Aegypten.1998....
Der.Prinz.von.Aegypten.1998....
Laurel.und.Hardy.Collection....
Zwischen.zwei.Leben.2017.GER...
2.Fast.2.Furious.2003.German...
Manhattan.Project.Der.atomar...
Bodycheck.1986.German.AC3.DL...
The.13th.Floor.Abwaerts.in.d...
Loewengrube.1989.S01D01-3.S0...
Schweinchen.Babe.in.der.gros...
Schlagzeilen.The.Paper.1994....
Plane.Dead.-.Zombies.on.a.Pl...
Die.Faelscher.2007.German.10...
Racer.and.the.Jailbird.2017....
Rommel.der.Wuestenfuchs.1951...
Daemonen.der.Seele.1972.Germ...
Daemonen.der.Seele.1972.Germ...
Formel.1.Saison.2018.GERMAN....
King.Arthur.Excalibur.Rising...
King.Arthur.Excalibur.Rising...
The.Man.In.The.High.Castle.S...
The.Man.In.The.High.Castle.S...
Humans.S03.GERMAN.DL.720p.HD...
The.Handmaids.Tale.S02.Germa...

 
 
Der.Prinz.von.Aegypten.1998.German.720p.BluRay.x264-CONTRiBUTiON

Jahr: 1998
Genre: Animation, Drama
Sprache: Deutsch DTS
Laufzeit: 1h 39mn
Bitrate: 2 976 Kbps
Format: MKV
Größe: 2.06 GiB
Release:

Beschreibung:

Der in einem Weidenkorb ausgesetzte Junge Moses wird von der Frau des Pharaos gefunden und lebt fortan als Waise mit geheimer Vergangenheit am königlichen Hof. Als Moses eines Tages durch seine Schwester Miriam von seinen jüdischen Wurzeln erfährt, werden aus ihm und seinem bisher besten Freund Ramses, dem leiblichen Sohn des Pharaos, erbitterte Feinde. Bevor es zum Kampf kommt, flieht Moses. Viele Jahre später bekommt Moses vom Gott Israels den Auftrag, sein Volk aus Ägypten zu befreien. Als er dort ankommt, trifft er wieder auf Ramses. Der ist nun der neue Pharao und will Moses aufhalten. Es kommt zur großen Konfrontation der Brüder, die beider Leben für immer verändern wird…



Complete name                            : der.prinz.von.aegypten.1998.german.720p.bluray.x264-contribution.mkv
Format                                   : Matroska
Format version                           : Version 2
File size                                : 2.06 GiB
Duration                                 : 1h 39mn
Overall bit rate                         : 2 976 Kbps
Writing application                      : mkvmerge v6.6.0 ('The Edge Of The In Between') built on Dec 1 2013 17:55:00
Writing library                          : libebml v1.3.0 + libmatroska v1.4.1

Video
ID                                       : 1
Format                                   : AVC
Format/Info                              : Advanced Video Codec
Format profile                           : [email protected]
Format settings, CABAC                   : Yes
Format settings, ReFrames                : 5 frames
Codec ID                                 : V_MPEG4/ISO/AVC
Duration                                 : 1h 39mn
Bit rate                                 : 2 149 Kbps
Width                                    : 1 280 pixels
Height                                   : 688 pixels
Display aspect ratio                     : 1.85:1
Frame rate mode                          : Constant
Frame rate                               : 23.976 fps
Color space                              : YUV
Chroma subsampling                       : 4:2:0
Bit depth                                : 8 bits
Scan type                                : Progressive
Bits/(Pixel*Frame)                       : 0.102
Stream size                              : 1.49 GiB (72%)
Writing library                          : x264 core 155 r2901 7d0ff22
Encoding settings                        : cabac=1 / ref=5 / deblock=1:-3:-3 / analyse=0x3:0x133 / me=umh / subme=7 / psy=1 / psy_rd=1.00:0.15 / mixed_ref=1 / me_range=16 / chroma_me=1 / trellis=1 / 8x8dct=1 / cqm=0 / deadzone=21,11 / fast_pskip=0 / chroma_qp_offset=-3 / threads=21 / lookahead_threads=3 / sliced_threads=0 / nr=0 / decimate=1 / interlaced=0 / bluray_compat=0 / constrained_intra=0 / bframes=3 / b_pyramid=2 / b_adapt=2 / b_bias=0 / direct=3 / weightb=1 / open_gop=0 / weightp=2 / keyint=240 / keyint_min=24 / scenecut=40 / intra_refresh=0 / rc_lookahead=50 / rc=crf / mbtree=1 / crf=20.0 / qcomp=0.60 / qpmin=0 / qpmax=69 / qpstep=4 / ip_ratio=1.40 / aq=1:1.00
Language                                 : English
Default                                  : Yes
Forced                                   : No

Audio
ID                                       : 2
Format                                   : DTS
Format/Info                              : Digital Theater Systems
Mode                                     : 16
Format settings, Endianness              : Big
Codec ID                                 : A_DTS
Duration                                 : 1h 39mn
Bit rate mode                            : Constant
Bit rate                                 : 768 Kbps
Channel(s)                               : 6 channels
Channel positions                        : Front: L C R, Side: L R, LFE
Sampling rate                            : 48.0 KHz
Bit depth                                : 24 bits
Compression mode                         : Lossy
Stream size                              : 545 MiB (26%)
Title                                    : ger
Language                                 : German
Default                                  : Yes
Forced                                   : No

Text
ID                                       : 3
Format                                   : UTF-8
Codec ID                                 : S_TEXT/UTF8
Codec ID/Info                            : UTF-8 Plain Text
Title                                    : ger
Language                                 : German
Default                                  : Yes
Forced                                   : Yes


Download:
Share Online Share OnlineShare OnlineShare Online
 

Kommentare