Digimon Adventure (Dub) | Fear the Walking Dead S04E15 | Watch Movie
 


 

DNS SERVER AENDERNum der staatlichen Zensur zu umgehen. Sollten wir von eurem Provider geseprrt werden, nutzt den TOR BROWSER oder ändert euren DNS SERVER.

Filmwünsche können bei uns im Forum abgegeben werden

Wir Speichern Nicht




 
 
 
Top Releases
Rampage.Big.meets.Bigger.201...
Rampage.Big.meets.Bigger.201...
Operation.Finale.2018.German...
Operation.Finale.2018.German...
Swimming.with.Men.2018.Germa...
Swimming.with.Men.2018.Germa...
Tanz.ins.Leben.2017.GERMAN.7...
Tanz.ins.Leben.2017.GERMAN.D...
Swimming.with.Men.2018.MULTi...
Tanz.ins.Leben.Finding.Your....

Cinedubs
Ant-Man.and.the.Wasp.German....
Ant-Man.and.the.Wasp.German....
Ant-Man.and.the.Wasp.2018.Ge...
Ant-Man.and.the.Wasp.2018.Ge...
Skyscraper.German.DL.AC3.Dub...
Skyscraper.German.DL.AC3.Dub...
Hotel.Artemis.2018.GERMAN.DL...
Hotel.Artemis.2018.GERMAN.DL...
The.First.Purge.2018.German....
The.First.Purge.2018.German....

Neuerscheinungen 2017-18
Private.Life.2018.German.DL....
Rommel.der.Wuestenfuchs.1951...
Lake.Placid.Legacy.2018.Germ...
Lake.Placid.Legacy.2018.Germ...
Malevolent.Und.das.Boese.exi...
Malevolent.Und.das.Boese.exi...
Das.etruskische.Laecheln.201...
Das.etruskische.Laecheln.201...
Madame.Aurora.und.der.Duft.v...
Presence.Es.ist.hier.2015.Ge...

XXX
Fake.Ice.Cream.Truck.2015.XX...
Reading.Room.2015.XXX.1080p....
I.Like.Black.Girls.3.2017.XX...
Marc.Dorcel.Amnesia.XXX.1996...
NubileFilms.18.09.20.Alexa.G...
PlayboyPlus.18.09.20.Miss.Zi...
PornMegaLoad.18.09.19.Zoe.Bl...
POVBitch.18.09.19.Misa.Nippl...
PrivateCasting-X.18.09.09.So...
SapphicErotica.18.09.20.Liv....
Sinfully.Sexy.Stepfamily.Hoo...
Young.And.In.Love.2018.XXX.1...
JapanHDV.18.09.20.Yui.Hatano...
Hegre.18.09.18.Double.Barrel...
I.Did.My.Stepmom.XXX.720p.WE...
Cosmid.18.09.17.Emma.Ditov.F...
Hustler.18.09.18.Cindy.Starf...
KimberLeeLive.18.09.14.BJ.Af...
KrissKiss.18.05.07.Teen.Suck...
KrissKiss.18.04.30.Sexy.Teen...

3D
Jurassic.World.Das.gefallene...
Best.of.3D.vol.10.-.12.GERMA...
Die.Biene.Maja.2.Die.Honigsp...
Sharknado.6.The.Last.One.3D....
Solo.A.Star.Wars.Story.3D.20...
Solo.A.Star.Wars.Story.3D.20...
Die.Biene.Maja.2.Die.Honigsp...
Avengers.Infinity.War.3D.201...
Avengers.Infinity.War.3D.201...
Rampage.Big.Meets.Bigger.3D....
Rampage.Big.Meets.Bigger.3D....
Rampage.Big.Meets.Bigger.3D....
Winter.Games.3D.2013.DUAL.CO...
Tomb.Raider.3D.2018.German.7...
Rampage.Big.Meets.Bigger.3D....

Old_Stuff
Britney.Spears.Live.The.Femm...
Buffy.The.Vampire.Slayer.199...
IMAX.Ride.Around.The.World.2...
Schimanski.-.Duisburg.Ruhror...
Akte.X.S02.German.DTS.DL.108...
How.I.Met.Your.Mother.S02.Ge...
Akte.X.S01.German.DTS.DL.108...
Den.Himmel.gibts.echt.DL.108...
Vikings.S02.German.DL.1080p....
Be.Kind.Rewind.Abgedreht.200...
Be.Kind.Rewind.Abgedreht.200...
Dracula.The.Dark.Lord.2012.G...
21.2008.German.DL.1080p.BluR...
Achtung.fertig.WK.Swissgerma...
The.Ouija.Exorcism.2015.MULT...

Filme
Rommel.der.Wuestenfuchs.1951...
Daemonen.der.Seele.1972.Germ...
Daemonen.der.Seele.1972.Germ...
Formel.1.Saison.2018.GERMAN....
King.Arthur.Excalibur.Rising...
King.Arthur.Excalibur.Rising...
The.Man.In.The.High.Castle.S...
The.Man.In.The.High.Castle.S...
Humans.S03.GERMAN.DL.720p.HD...
The.Handmaids.Tale.S02.Germa...
The.Handmaids.Tale.S02.Germa...
Mr.Mercedes.S02.German.DD+51...
Mr.Mercedes.S02.German.DD+51...
Ein.Vogel.auf.dem.Drahtseil....
Ein.Vogel.auf.dem.Drahtseil....
Tallulah.2016.German.DL.1080...
Tallulah.2016.German.DL.720p...
Der.perfekte.Mann.2005.Germa...
3.Tage.in.Quiberon.2018.GERM...
Ein.Vogel.auf.dem.Drahtseil....
Ein.Vogel.auf.dem.Drahtseil....
Cold.Skin.Insel.der.Kreature...
Leaving.Las.Vegas.1995.Germa...
Leaving.Las.Vegas.1995.Germa...

 
 
Private.Life.2018.German.DL.1080p.WEB.x264.iNTERNAL-BiGiNT

Jahr: 2018
Genre: Drama
Sprache: Deutsch AC3 | Englisch AC3
Laufzeit: 2h 4mn
Bitrate: 5 188 Kbps
Format: MKV
Größe: 4.50 GiB
Release:

Beschreibung:
Theaterproduzent Richard (Paul Giamatti) und seine Ehefrau Rachel (Kathryn Hahn) wünschen sich verzweifelt ein Kind. Rachel durchläuft dafür mehrere Fruchtbarkeitstherapien, das Paar zieht auch künstliche Befruchtung, Adoption und Leihmutterschaft in Betracht. Unter den Bestrebungen leidet letztlich die Beziehung der beiden. Immer tiefer versinken sie in einer eigenen abgeschotteten Welt der medizinisch unterstützten Fortpflanzung und inländischen Adoptionen, immer mehr Geld investieren sie in ihren Traum, bis sie dann doch schließlich kurz davorstehen, aufzugeben. Doch dann tritt die junge Studienabbrecherin Sadie (Kayli Carter) in ihr Leben...


Complete name                            : private.life.2018.german.dl.1080p.web.x264.internal-bigint.mkv
Format                                   : Matroska
Format version                           : Version 4 / Version 2
File size                                : 4.50 GiB
Duration                                 : 2h 4mn
Overall bit rate mode                    : Variable
Overall bit rate                         : 5 188 Kbps
Encoded date                             : UTC 2018-10-05 07:52:32
Writing application                      : mkvmerge v22.0.0 ('At The End Of The World') 64-bit
Writing library                          : libebml v1.3.5 + libmatroska v1.4.8
DURATION                                 : 02:03:27.776000000
NUMBER_OF_FRAMES                         : 2018
NUMBER_OF_BYTES                          : 72171
_STATISTICS_WRITING_APP                  : mkvmerge v22.0.0 ('At The End Of The World') 64-bit
_STATISTICS_WRITING_DATE_UTC             : 2018-10-05 07:52:32
_STATISTICS_TAGS                         : BPS DURATION NUMBER_OF_FRAMES NUMBER_OF_BYTES

Video
ID                                       : 1
Format                                   : AVC
Format/Info                              : Advanced Video Codec
Format profile                           : [email protected]
Format settings, CABAC                   : Yes
Format settings, ReFrames                : 3 frames
Codec ID                                 : V_MPEG4/ISO/AVC
Duration                                 : 2h 4mn
Bit rate mode                            : Variable
Bit rate                                 : 3 805 Kbps
Nominal bit rate                         : 4 020 Kbps
Maximum bit rate                         : 6 030 Kbps
Width                                    : 1 920 pixels
Height                                   : 1 080 pixels
Display aspect ratio                     : 16:9
Frame rate mode                          : Constant
Frame rate                               : 23.976 fps
Color space                              : YUV
Chroma subsampling                       : 4:2:0
Bit depth                                : 8 bits
Scan type                                : Progressive
Bits/(Pixel*Frame)                       : 0.077
Stream size                              : 3.30 GiB (73%)
Writing library                          : x264 core 148 r2715 7e75228
Encoding settings                        : cabac=1 / ref=3 / deblock=1:0:0 / analyse=0x1:0x111 / me=umh / subme=10 / psy=1 / psy_rd=1.00:0.00 / mixed_ref=1 / me_range=24 / chroma_me=1 / trellis=2 / 8x8dct=0 / cqm=0 / deadzone=21,11 / fast_pskip=1 / chroma_qp_offset=-2 / threads=8 / lookahead_threads=1 / sliced_threads=0 / nr=0 / decimate=1 / interlaced=0 / bluray_compat=0 / stitchable=1 / constrained_intra=0 / bframes=2 / b_pyramid=0 / b_adapt=2 / b_bias=0 / direct=3 / weightb=1 / open_gop=0 / weightp=2 / keyint=48 / keyint_min=25 / scenecut=0 / intra_refresh=0 / rc_lookahead=48 / rc=2pass / mbtree=1 / bitrate=4020 / ratetol=1.0 / qcomp=0.50 / qpmin=6 / qpmax=51 / qpstep=4 / cplxblur=20.0 / qblur=0.5 / vbv_maxrate=6030 / vbv_bufsize=8040 / nal_hrd=vbr / filler=0 / ip_ratio=1.40 / aq=1:1.00
Default                                  : Yes
Forced                                   : No

Audio #1
ID                                       : 2
Format                                   : E-AC-3
Format/Info                              : Audio Coding 3
Format settings, Endianness              : Big
Codec ID                                 : A_EAC3
Duration                                 : 2h 4mn
Bit rate mode                            : Constant
Bit rate                                 : 640 Kbps
Channel(s)                               : 6 channels
Channel positions                        : Front: L C R, Side: L R, LFE
Sampling rate                            : 48.0 KHz
Compression mode                         : Lossy
Stream size                              : 568 MiB (12%)
Language                                 : German
Default                                  : Yes
Forced                                   : No

Audio #2
ID                                       : 3
Format                                   : E-AC-3
Format/Info                              : Audio Coding 3
Format settings, Endianness              : Big
Codec ID                                 : A_EAC3
Duration                                 : 2h 4mn
Bit rate mode                            : Constant
Bit rate                                 : 640 Kbps
Channel(s)                               : 6 channels
Channel positions                        : Front: L C R, Side: L R, LFE
Sampling rate                            : 48.0 KHz
Compression mode                         : Lossy
Stream size                              : 568 MiB (12%)
Language                                 : English
Default                                  : No
Forced                                   : No

Text #1
ID                                       : 4
Format                                   : UTF-8
Codec ID                                 : S_TEXT/UTF8
Codec ID/Info                            : UTF-8 Plain Text
Title                                    : Forced
Language                                 : German
Default                                  : Yes
Forced                                   : Yes

Text #2
ID                                       : 5
Format                                   : UTF-8
Codec ID                                 : S_TEXT/UTF8
Codec ID/Info                            : UTF-8 Plain Text
Title                                    : Deutsch
Language                                 : German
Default                                  : No
Forced                                   : No

Text #3
ID                                       : 6
Format                                   : UTF-8
Codec ID                                 : S_TEXT/UTF8
Codec ID/Info                            : UTF-8 Plain Text
Title                                    : Englisch
Language                                 : English
Default                                  : No
Forced                                   : No

Text #4
ID                                       : 7
Format                                   : UTF-8
Codec ID                                 : S_TEXT/UTF8
Codec ID/Info                            : UTF-8 Plain Text
Title                                    : Englisch (CC)
Language                                 : English
Default                                  : No
Forced                                   : No


Download:
Share Online Share OnlineShare OnlineShare Online
 

Kommentare