Read More | ダウンロード APK | Aiseesoft Mac Video Enhancer
 


 

DNS SERVER AENDERNum der staatlichen Zensur zu umgehen. Sollten wir von eurem Provider geseprrt werden, nutzt den TOR BROWSER oder ändert euren DNS SERVER.

Filmwünsche können bei uns im Forum abgegeben werden

Wir Speichern Nicht




 
 
 
Top Releases
Swimming.with.Men.2018.Germa...
Swimming.with.Men.2018.Germa...
Tanz.ins.Leben.2017.GERMAN.7...
Tanz.ins.Leben.2017.GERMAN.D...
Swimming.with.Men.2018.MULTi...
Tanz.ins.Leben.Finding.Your....
Feinde.Hostiles.2017.German....
Feinde.Hostiles.2017.German....
No.Way.Out.Gegen.die.Flammen...
No.Way.Out.Gegen.die.Flammen...

Cinedubs
Ant-Man.and.the.Wasp.2018.Ge...
Ant-Man.and.the.Wasp.2018.Ge...
Skyscraper.German.DL.AC3.Dub...
Skyscraper.German.DL.AC3.Dub...
Hotel.Artemis.2018.GERMAN.DL...
Hotel.Artemis.2018.GERMAN.DL...
The.First.Purge.2018.German....
The.First.Purge.2018.German....
The.First.Purge.2018.German....
Hotel.Transsilvanien.3.Ein.M...

Neuerscheinungen 2017-18
Lake.Placid.Legacy.2018.Germ...
Lake.Placid.Legacy.2018.Germ...
Malevolent.Und.das.Boese.exi...
Malevolent.Und.das.Boese.exi...
Das.etruskische.Laecheln.201...
Das.etruskische.Laecheln.201...
Madame.Aurora.und.der.Duft.v...
Presence.Es.ist.hier.2015.Ge...
Presence.Es.ist.hier.2015.Ge...
Madame.Aurora.und.der.Duft.v...

XXX
Fake.Ice.Cream.Truck.2015.XX...
Reading.Room.2015.XXX.1080p....
I.Like.Black.Girls.3.2017.XX...
Marc.Dorcel.Amnesia.XXX.1996...
NubileFilms.18.09.20.Alexa.G...
PlayboyPlus.18.09.20.Miss.Zi...
PornMegaLoad.18.09.19.Zoe.Bl...
POVBitch.18.09.19.Misa.Nippl...
PrivateCasting-X.18.09.09.So...
SapphicErotica.18.09.20.Liv....
Sinfully.Sexy.Stepfamily.Hoo...
Young.And.In.Love.2018.XXX.1...
JapanHDV.18.09.20.Yui.Hatano...
Hegre.18.09.18.Double.Barrel...
I.Did.My.Stepmom.XXX.720p.WE...
Cosmid.18.09.17.Emma.Ditov.F...
Hustler.18.09.18.Cindy.Starf...
KimberLeeLive.18.09.14.BJ.Af...
KrissKiss.18.05.07.Teen.Suck...
KrissKiss.18.04.30.Sexy.Teen...

3D
Jurassic.World.Das.gefallene...
Best.of.3D.vol.10.-.12.GERMA...
Die.Biene.Maja.2.Die.Honigsp...
Sharknado.6.The.Last.One.3D....
Solo.A.Star.Wars.Story.3D.20...
Solo.A.Star.Wars.Story.3D.20...
Die.Biene.Maja.2.Die.Honigsp...
Avengers.Infinity.War.3D.201...
Avengers.Infinity.War.3D.201...
Rampage.Big.Meets.Bigger.3D....
Rampage.Big.Meets.Bigger.3D....
Rampage.Big.Meets.Bigger.3D....
Winter.Games.3D.2013.DUAL.CO...
Tomb.Raider.3D.2018.German.7...
Rampage.Big.Meets.Bigger.3D....

Old_Stuff
Britney.Spears.Live.The.Femm...
Buffy.The.Vampire.Slayer.199...
IMAX.Ride.Around.The.World.2...
Schimanski.-.Duisburg.Ruhror...
Akte.X.S02.German.DTS.DL.108...
How.I.Met.Your.Mother.S02.Ge...
Akte.X.S01.German.DTS.DL.108...
Den.Himmel.gibts.echt.DL.108...
Vikings.S02.German.DL.1080p....
Be.Kind.Rewind.Abgedreht.200...
Be.Kind.Rewind.Abgedreht.200...
Dracula.The.Dark.Lord.2012.G...
21.2008.German.DL.1080p.BluR...
Achtung.fertig.WK.Swissgerma...
The.Ouija.Exorcism.2015.MULT...

Filme
Daemonen.der.Seele.1972.Germ...
Daemonen.der.Seele.1972.Germ...
Formel.1.Saison.2018.GERMAN....
King.Arthur.Excalibur.Rising...
King.Arthur.Excalibur.Rising...
The.Man.In.The.High.Castle.S...
The.Man.In.The.High.Castle.S...
Humans.S03.GERMAN.DL.720p.HD...
The.Handmaids.Tale.S02.Germa...
The.Handmaids.Tale.S02.Germa...
Mr.Mercedes.S02.German.DD+51...
Mr.Mercedes.S02.German.DD+51...
Ein.Vogel.auf.dem.Drahtseil....
Ein.Vogel.auf.dem.Drahtseil....
Tallulah.2016.German.DL.1080...
Tallulah.2016.German.DL.720p...
Der.perfekte.Mann.2005.Germa...
3.Tage.in.Quiberon.2018.GERM...
Ein.Vogel.auf.dem.Drahtseil....
Ein.Vogel.auf.dem.Drahtseil....
Cold.Skin.Insel.der.Kreature...
Leaving.Las.Vegas.1995.Germa...
Leaving.Las.Vegas.1995.Germa...
Small.Crimes.2017.German.DL....

 
 
Lake.Placid.Legacy.2018.German.AC3D.DL.1080p.WEB.H264-CLASSiCALHD

Jahr: 2018
Genre: Horror
Sprache: Deutsch AC3 | Englisch AC3
Laufzeit: 1h 33mn
Bitrate: 6 247 Kbps
Format: MKV
Größe: 4.06 GiB
Release:

Beschreibung:

Als sich eine Gruppe junger Forscher zu einem mysteriösen See aufmacht, entdecken Sie eine Insel mit einem verlassenen Laborgebäude, das ein schreckliches Geheimnis birgt: Auf der Insel befindet sich ein tödliches Raubtier. Bevor sie umkehren können, beginnt ein grausamer Kampf um Leben und Tod – ehemalige Gegner müssen ihren Disput beiseitelegen und zusammenarbeiten, wenn sie überleben wollen.



Complete name                            : classicalhd-lake.placid.legacy-1080p.mkv
Format                                   : Matroska
Format version                           : Version 4 / Version 2
File size                                : 4.06 GiB
Duration                                 : 1h 33mn
Overall bit rate                         : 6 247 Kbps
Encoded date                             : UTC 2018-10-03 14:54:34
Writing application                      : mkvmerge v27.0.0 ('Metropolis') 64-bit
Writing library                          : libebml v1.3.6 + libmatroska v1.4.9
DURATION                                 : 01:33:06.917000000
NUMBER_OF_FRAMES                         : 133953
NUMBER_OF_BYTES                          : 3646264628
_STATISTICS_WRITING_APP                  : mkvmerge v27.0.0 ('Metropolis') 64-bit
_STATISTICS_WRITING_DATE_UTC             : 2018-10-03 14:54:34
_STATISTICS_TAGS                         : BPS DURATION NUMBER_OF_FRAMES NUMBER_OF_BYTES

Video
ID                                       : 1
Format                                   : AVC
Format/Info                              : Advanced Video Codec
Format profile                           : High@L4.0
Format settings, CABAC                   : Yes
Format settings, ReFrames                : 4 frames
Codec ID                                 : V_MPEG4/ISO/AVC
Duration                                 : 1h 33mn
Bit rate                                 : 5 098 Kbps
Width                                    : 1 920 pixels
Height                                   : 1 030 pixels
Display aspect ratio                     : 1.85:1
Frame rate mode                          : Constant
Frame rate                               : 23.976 fps
Color space                              : YUV
Chroma subsampling                       : 4:2:0
Bit depth                                : 8 bits
Scan type                                : Progressive
Bits/(Pixel*Frame)                       : 0.108
Stream size                              : 3.32 GiB (82%)
Language                                 : English
Default                                  : Yes
Forced                                   : Yes
Color primaries                          : BT.709
Transfer characteristics                 : BT.709
Matrix coefficients                      : BT.709

Audio #1
ID                                       : 2
Format                                   : AC-3
Format/Info                              : Audio Coding 3
Mode extension                           : CM (complete main)
Format settings, Endianness              : Big
Codec ID                                 : A_AC3
Duration                                 : 1h 33mn
Bit rate mode                            : Constant
Bit rate                                 : 384 Kbps
Channel(s)                               : 6 channels
Channel positions                        : Front: L C R, Side: L R, LFE
Sampling rate                            : 48.0 KHz
Bit depth                                : 16 bits
Compression mode                         : Lossy
Delay relative to video                  : 24ms
Stream size                              : 256 MiB (6%)
Language                                 : German
Default                                  : Yes
Forced                                   : Yes

Audio #2
ID                                       : 3
Format                                   : E-AC-3
Format/Info                              : Audio Coding 3
Format settings, Endianness              : Big
Codec ID                                 : A_EAC3
Duration                                 : 1h 33mn
Bit rate mode                            : Constant
Bit rate                                 : 640 Kbps
Channel(s)                               : 6 channels
Channel positions                        : Front: L C R, Side: L R, LFE
Sampling rate                            : 48.0 KHz
Compression mode                         : Lossy
Stream size                              : 426 MiB (10%)
Language                                 : English
Default                                  : No
Forced                                   : No

Text
ID                                       : 4
Format                                   : UTF-8
Codec ID                                 : S_TEXT/UTF8
Codec ID/Info                            : UTF-8 Plain Text
Title                                    : Forced
Language                                 : German
Default                                  : Yes
Forced                                   : Yes


Download:
Share Online Share OnlineShare OnlineShare Online
 

Kommentare