> BANDES-ANNONCES CINÉ | Bluecoins premium | August 2016
 


 

DNS SERVER AENDERNum der staatlichen Zensur zu umgehen. Sollten wir von eurem Provider geseprrt werden, nutzt den TOR BROWSER oder ändert euren DNS SERVER.

Filmwünsche können bei uns im Forum abgegeben werden

Wir Speichern Nicht




 
 
 
Top Releases
Tanz.ins.Leben.2017.GERMAN.7...
Tanz.ins.Leben.2017.GERMAN.D...
Swimming.with.Men.2018.MULTi...
Tanz.ins.Leben.Finding.Your....
Feinde.Hostiles.2017.German....
Feinde.Hostiles.2017.German....
No.Way.Out.Gegen.die.Flammen...
No.Way.Out.Gegen.die.Flammen...
Rampage.Big.meets.Bigger.201...
Jurassic.World.Das.gefallene...

Cinedubs
Ant-Man.and.the.Wasp.2018.Ge...
Ant-Man.and.the.Wasp.2018.Ge...
Skyscraper.German.DL.AC3.Dub...
Skyscraper.German.DL.AC3.Dub...
Hotel.Artemis.2018.GERMAN.DL...
Hotel.Artemis.2018.GERMAN.DL...
The.First.Purge.2018.German....
The.First.Purge.2018.German....
The.First.Purge.2018.German....
Hotel.Transsilvanien.3.Ein.M...

Neuerscheinungen 2017-18
Presence.Es.ist.hier.2015.Ge...
Presence.Es.ist.hier.2015.Ge...
Madame.Aurora.und.der.Duft.v...
Vielmachglas.2018.German.720...
Vielmachglas.2018.German.108...
Rock.N.Roll.High.School.1979...
Rock.N.Roll.High.School.1979...
Vielmachglas.2018.GERMAN.COM...
Der.Prinz.von.Aegypten.The.P...
The.Hollow.Child.2017.MULTI....

XXX
Fake.Ice.Cream.Truck.2015.XX...
Reading.Room.2015.XXX.1080p....
I.Like.Black.Girls.3.2017.XX...
Marc.Dorcel.Amnesia.XXX.1996...
NubileFilms.18.09.20.Alexa.G...
PlayboyPlus.18.09.20.Miss.Zi...
PornMegaLoad.18.09.19.Zoe.Bl...
POVBitch.18.09.19.Misa.Nippl...
PrivateCasting-X.18.09.09.So...
SapphicErotica.18.09.20.Liv....
Sinfully.Sexy.Stepfamily.Hoo...
Young.And.In.Love.2018.XXX.1...
JapanHDV.18.09.20.Yui.Hatano...
Hegre.18.09.18.Double.Barrel...
I.Did.My.Stepmom.XXX.720p.WE...
Cosmid.18.09.17.Emma.Ditov.F...
Hustler.18.09.18.Cindy.Starf...
KimberLeeLive.18.09.14.BJ.Af...
KrissKiss.18.05.07.Teen.Suck...
KrissKiss.18.04.30.Sexy.Teen...

3D
Best.of.3D.vol.10.-.12.GERMA...
Die.Biene.Maja.2.Die.Honigsp...
Sharknado.6.The.Last.One.3D....
Solo.A.Star.Wars.Story.3D.20...
Solo.A.Star.Wars.Story.3D.20...
Die.Biene.Maja.2.Die.Honigsp...
Avengers.Infinity.War.3D.201...
Avengers.Infinity.War.3D.201...
Rampage.Big.Meets.Bigger.3D....
Rampage.Big.Meets.Bigger.3D....
Rampage.Big.Meets.Bigger.3D....
Winter.Games.3D.2013.DUAL.CO...
Tomb.Raider.3D.2018.German.7...
Rampage.Big.Meets.Bigger.3D....
Rampage.Big.Meets.Bigger.3D....

Old_Stuff
Britney.Spears.Live.The.Femm...
Buffy.The.Vampire.Slayer.199...
IMAX.Ride.Around.The.World.2...
Schimanski.-.Duisburg.Ruhror...
Akte.X.S02.German.DTS.DL.108...
How.I.Met.Your.Mother.S02.Ge...
Akte.X.S01.German.DTS.DL.108...
Den.Himmel.gibts.echt.DL.108...
Vikings.S02.German.DL.1080p....
Be.Kind.Rewind.Abgedreht.200...
Be.Kind.Rewind.Abgedreht.200...
Dracula.The.Dark.Lord.2012.G...
21.2008.German.DL.1080p.BluR...
Achtung.fertig.WK.Swissgerma...
The.Ouija.Exorcism.2015.MULT...

Filme
The.Man.In.The.High.Castle.S...
The.Man.In.The.High.Castle.S...
Humans.S03.GERMAN.DL.720p.HD...
The.Handmaids.Tale.S02.Germa...
The.Handmaids.Tale.S02.Germa...
Mr.Mercedes.S02.German.DD+51...
Mr.Mercedes.S02.German.DD+51...
Ein.Vogel.auf.dem.Drahtseil....
Ein.Vogel.auf.dem.Drahtseil....
Tallulah.2016.German.DL.1080...
Tallulah.2016.German.DL.720p...
Der.perfekte.Mann.2005.Germa...
3.Tage.in.Quiberon.2018.GERM...
Ein.Vogel.auf.dem.Drahtseil....
Ein.Vogel.auf.dem.Drahtseil....
Cold.Skin.Insel.der.Kreature...
Leaving.Las.Vegas.1995.Germa...
Leaving.Las.Vegas.1995.Germa...
Small.Crimes.2017.German.DL....
Small.Crimes.2017.German.DL....
Special.Correspondents.2016....
Special.Correspondents.2016....
Slam.2016.German.1080p.WEB.x...
Slam.2016.German.720p.WEB.x2...

 
 
The.Man.In.The.High.Castle.S03.German.DL.DUBBED.720p.WebHD.x264-AIDA

Jahr: 2018
Genre: Drama | Sci-Fi | Thriller
Sprache: Deutsch AC3 | Englisch AC3
Laufzeit: 1h je Folge
Bitrate: 1000 Kbps
Format: MKV
Größe: 1,1 GB je Folge
Release:

Beschreibung:

„The Man in the High Castle“ ist die Serienadaption von Philip K. Dicks Roman „Das Orakel vom Berge“ und spielt in einem alternativ-historischen Setting des Jahres 1962 (dem Erscheinungsjahr der Buchvorlage). Nazideutschland und Japan haben den Zweiten Weltkrieg gewonnen und daraufhin die Vereinigten Staaten von Amerika besetzt. Der Westen der ehemaligen USA macht nun die Japanese Pacific States aus, während der Osten zum Großdeutschen Reich gehört. Zwischen ihnen befindet sich die neutrale Pufferzone der Rocky Mountain States.

 

enthaltene Folgen:

The.Man.In.The.High.Castle.S03E01.German.DL.DUBBED.720p.WebHD.x264-AIDA



General
Complete name                            : The.Man.In.The.High.Castle.S03E01.German.DL.DUBBED.720p.WebHD.x264-AIDA.mkv
Format                                   : Matroska
Format version                           : Version 4 / Version 2
File size                                : 1.13 GiB
Duration                                 : 1h 10mn
Overall bit rate                         : 2 310 Kbps
Encoded date                             : UTC 2018-10-04 22:10:20
Writing application                      : mkvmerge v20.0.0 ('I Am The Sun') 64-bit
Writing library                          : libebml v1.3.5 + libmatroska v1.4.8
DURATION                                 : 01:10:02.073000000
NUMBER_OF_FRAMES                         : 100749
NUMBER_OF_BYTES                          : 539782928
_STATISTICS_WRITING_APP                  : mkvmerge v20.0.0 ('I Am The Sun') 64-bit
_STATISTICS_WRITING_DATE_UTC             : 2018-10-04 22:10:20
_STATISTICS_TAGS                         : BPS DURATION NUMBER_OF_FRAMES NUMBER_OF_BYTES

Video
ID                                       : 1
Format                                   : AVC
Format/Info                              : Advanced Video Codec
Format profile                           : [email protected]
Format settings, CABAC                   : Yes
Format settings, ReFrames                : 5 frames
Codec ID                                 : V_MPEG4/ISO/AVC
Duration                                 : 1h 10mn
Bit rate                                 : 984 Kbps
Width                                    : 1 280 pixels
Height                                   : 720 pixels
Display aspect ratio                     : 16:9
Frame rate mode                          : Constant
Frame rate                               : 23.976 fps
Color space                              : YUV
Chroma subsampling                       : 4:2:0
Bit depth                                : 8 bits
Scan type                                : Progressive
Bits/(Pixel*Frame)                       : 0.045
Stream size                              : 493 MiB (43%)
Default                                  : Yes
Forced                                   : No
Color primaries                          : BT.709
Transfer characteristics                 : BT.709
Matrix coefficients                      : BT.709

Audio #1
ID                                       : 2
Format                                   : AC-3
Format/Info                              : Audio Coding 3
Mode extension                           : CM (complete main)
Format settings, Endianness              : Big
Codec ID                                 : A_AC3
Duration                                 : 1h 10mn
Bit rate mode                            : Constant
Bit rate                                 : 640 Kbps
Channel(s)                               : 6 channels
Channel positions                        : Front: L C R, Side: L R, LFE
Sampling rate                            : 48.0 KHz
Bit depth                                : 16 bits
Compression mode                         : Lossy
Stream size                              : 321 MiB (28%)
Language                                 : German
Default                                  : Yes
Forced                                   : No

Audio #2
ID                                       : 3
Format                                   : E-AC-3
Format/Info                              : Audio Coding 3
Format settings, Endianness              : Big
Codec ID                                 : A_EAC3
Duration                                 : 1h 10mn
Bit rate mode                            : Constant
Bit rate                                 : 640 Kbps
Channel(s)                               : 6 channels
Channel positions                        : Front: L C R, Side: L R, LFE
Sampling rate                            : 48.0 KHz
Compression mode                         : Lossy
Stream size                              : 321 MiB (28%)
Title                                    : English
Language                                 : English
Default                                  : No
Forced                                   : No



Download:
Share-Online.biz Share-Online.bizShare-Online.bizShare-Online.biz | Rapidgator.net Rapidgator.netRapidgator.netRapidgator.net
 

Kommentare