Journeyman | Read more | Rosco Campbell
 


 

DNS SERVER AENDERNum der staatlichen Zensur zu umgehen. Sollten wir von eurem Provider geseprrt werden, nutzt den TOR BROWSER oder ändert euren DNS SERVER.

Filmwünsche können bei uns im Forum abgegeben werden

Wir Speichern Nicht




 
 
 
Top Releases
Tanz.ins.Leben.2017.GERMAN.7...
Tanz.ins.Leben.2017.GERMAN.D...
Swimming.with.Men.2018.MULTi...
Tanz.ins.Leben.Finding.Your....
Feinde.Hostiles.2017.German....
Feinde.Hostiles.2017.German....
No.Way.Out.Gegen.die.Flammen...
No.Way.Out.Gegen.die.Flammen...
Rampage.Big.meets.Bigger.201...
Jurassic.World.Das.gefallene...

Cinedubs
Ant-Man.and.the.Wasp.2018.Ge...
Ant-Man.and.the.Wasp.2018.Ge...
Skyscraper.German.DL.AC3.Dub...
Skyscraper.German.DL.AC3.Dub...
Hotel.Artemis.2018.GERMAN.DL...
Hotel.Artemis.2018.GERMAN.DL...
The.First.Purge.2018.German....
The.First.Purge.2018.German....
The.First.Purge.2018.German....
Hotel.Transsilvanien.3.Ein.M...

Neuerscheinungen 2017-18
Presence.Es.ist.hier.2015.Ge...
Presence.Es.ist.hier.2015.Ge...
Madame.Aurora.und.der.Duft.v...
Vielmachglas.2018.German.720...
Vielmachglas.2018.German.108...
Rock.N.Roll.High.School.1979...
Rock.N.Roll.High.School.1979...
Vielmachglas.2018.GERMAN.COM...
Der.Prinz.von.Aegypten.The.P...
The.Hollow.Child.2017.MULTI....

XXX
Hegre.18.09.18.Double.Barrel...
I.Did.My.Stepmom.XXX.720p.WE...
Cosmid.18.09.17.Emma.Ditov.F...
Hustler.18.09.18.Cindy.Starf...
KimberLeeLive.18.09.14.BJ.Af...
KrissKiss.18.05.07.Teen.Suck...
KrissKiss.18.04.30.Sexy.Teen...
HookupHotshot.E159.Gabriela....
HotLegsAndFeet.18.09.18.Ambe...
ATKGirlfriends.18.09.19.Lily...
Housewife1On1.18.09.17.Zoey....
HandjobGoddess.18.09.20.Neka...
ImmoralLive.18.09.20.Sienna....
KrissKiss.18.04.09.Deepthroa...
Holed.18.09.16.Emily.Willis....
KrissKiss.18.05.15.Teen.Deep...
I.Did.My.Stepmom.XXX.1080p.W...
AdultAuditions.E255.Riley.Sw...
ATKHairy.18.09.17.Bella.Dahl...
HardTied.18.09.19.Coralee.Su...

3D
Best.of.3D.vol.10.-.12.GERMA...
Die.Biene.Maja.2.Die.Honigsp...
Sharknado.6.The.Last.One.3D....
Solo.A.Star.Wars.Story.3D.20...
Solo.A.Star.Wars.Story.3D.20...
Die.Biene.Maja.2.Die.Honigsp...
Avengers.Infinity.War.3D.201...
Avengers.Infinity.War.3D.201...
Rampage.Big.Meets.Bigger.3D....
Rampage.Big.Meets.Bigger.3D....
Rampage.Big.Meets.Bigger.3D....
Winter.Games.3D.2013.DUAL.CO...
Tomb.Raider.3D.2018.German.7...
Rampage.Big.Meets.Bigger.3D....
Rampage.Big.Meets.Bigger.3D....

Old_Stuff
Britney.Spears.Live.The.Femm...
Buffy.The.Vampire.Slayer.199...
IMAX.Ride.Around.The.World.2...
Schimanski.-.Duisburg.Ruhror...
Akte.X.S02.German.DTS.DL.108...
How.I.Met.Your.Mother.S02.Ge...
Akte.X.S01.German.DTS.DL.108...
Den.Himmel.gibts.echt.DL.108...
Vikings.S02.German.DL.1080p....
Be.Kind.Rewind.Abgedreht.200...
Be.Kind.Rewind.Abgedreht.200...
Dracula.The.Dark.Lord.2012.G...
21.2008.German.DL.1080p.BluR...
Achtung.fertig.WK.Swissgerma...
The.Ouija.Exorcism.2015.MULT...

Filme
Humans.S03.GERMAN.DL.720p.HD...
The.Handmaids.Tale.S02.Germa...
The.Handmaids.Tale.S02.Germa...
Mr.Mercedes.S02.German.DD+51...
Mr.Mercedes.S02.German.DD+51...
Ein.Vogel.auf.dem.Drahtseil....
Ein.Vogel.auf.dem.Drahtseil....
Tallulah.2016.German.DL.1080...
Tallulah.2016.German.DL.720p...
Der.perfekte.Mann.2005.Germa...
3.Tage.in.Quiberon.2018.GERM...
Ein.Vogel.auf.dem.Drahtseil....
Ein.Vogel.auf.dem.Drahtseil....
Cold.Skin.Insel.der.Kreature...
Leaving.Las.Vegas.1995.Germa...
Leaving.Las.Vegas.1995.Germa...
Small.Crimes.2017.German.DL....
Small.Crimes.2017.German.DL....
Special.Correspondents.2016....
Special.Correspondents.2016....
Slam.2016.German.1080p.WEB.x...
Slam.2016.German.720p.WEB.x2...
Der.Prinz.von.Aegypten.1998....
Shimmer.Lake.2017.German.DL....

 
 
Humans.S03.GERMAN.DL.720p.HDTV.x264-MDGP

Jahr: 2018
Genre: Drama | Sci-Fi
Sprache: Deutsch AC3 | Englisch AC3
Laufzeit: 45min je Folge
Bitrate: 1600 Kbps
Format: MKV
Größe: 800 MB je Folge
Release:

Beschreibung:

Die Serie „Humans“ ist das englischsprachige Remake der schwedischen Serie „Real Humans“ (im Original „Äkta människor“). Sie spielt in einer parallelen Gegenwart, in der Androiden, sogenannte Synths, zum alltäglichen Leben gehören. Die Geschichte folgt zum einen einer Familie, die sich ihren ersten Serviceroboter anschafft, zum anderen einer Gruppe künstlicher Menschen, die eine Revolte startet.

Im Zentrum der vier übergreifenden Storylines steht die Familie Hawkins. Joe Hawkins (Tom Goodman-Hill) entscheidet sich dazu, das aktuell angesagte Tech-Gadget für seine Familie zu kaufen: einen Synth. Seine Beziehung zu seiner Frau Laura (Katherine Parkinson) wird immer brüchiger und er glaubt, dass ein Roboterdiener im Haushalt ihm die Zeit geben könnte, die er braucht, um das zu kitten.

 

enthaltene Folgen:

Humans.S03E01.GERMAN.DL.720p.HDTV.x264-MDGP NEU



General
Complete name                            : Humans.S03E01.GERMAN.DL.720p.HDTV.x264-MDGP\mdgp-humanss03e01-720p.mkv
Format                                   : Matroska
Format version                           : Version 4 / Version 2
File size                                : 760 MiB
Duration                                 : 46mn 23s
Overall bit rate                         : 2 291 Kbps
Encoded date                             : UTC 2018-10-04 19:26:45
Writing application                      : mkvmerge v7.7.0 ('Six Voices') 64bit built on Feb 28 2015 23:39:33
Writing library                          : libebml v1.3.1 + libmatroska v1.4.2
DURATION                                 : 00:46:23.680000000
NUMBER_OF_FRAMES                         : 86990
NUMBER_OF_BYTES                          : 66808320
_STATISTICS_WRITING_APP                  : mkvmerge v7.7.0 ('Six Voices') 64bit built on Feb 28 2015 23:39:33
_STATISTICS_WRITING_DATE_UTC             : 2018-10-04 19:26:45
_STATISTICS_TAGS                         : BPS DURATION NUMBER_OF_FRAMES NUMBER_OF_BYTES

Video
ID                                       : 1
Format                                   : AVC
Format/Info                              : Advanced Video Codec
Format profile                           : High@L4.1
Format settings, CABAC                   : Yes
Format settings, ReFrames                : 5 frames
Codec ID                                 : V_MPEG4/ISO/AVC
Duration                                 : 46mn 23s
Bit rate                                 : 1 669 Kbps
Width                                    : 1 280 pixels
Height                                   : 720 pixels
Display aspect ratio                     : 16:9
Frame rate mode                          : Constant
Frame rate                               : 25.000 fps
Color space                              : YUV
Chroma subsampling                       : 4:2:0
Bit depth                                : 8 bits
Scan type                                : Progressive
Bits/(Pixel*Frame)                       : 0.072
Stream size                              : 554 MiB (73%)
Writing library                          : x264 core 155 r2901 7d0ff22
Encoding settings                        : cabac=1 / ref=5 / deblock=1:-3:-3 / analyse=0x3:0x113 / me=umh / subme=7 / psy=1 / psy_rd=1.00:0.00 / mixed_ref=1 / me_range=16 / chroma_me=1 / trellis=1 / 8x8dct=1 / cqm=0 / deadzone=21,11 / fast_pskip=0 / chroma_qp_offset=-2 / threads=12 / lookahead_threads=2 / sliced_threads=0 / nr=0 / decimate=1 / interlaced=0 / bluray_compat=0 / constrained_intra=0 / bframes=3 / b_pyramid=2 / b_adapt=1 / b_bias=0 / direct=1 / weightb=1 / open_gop=0 / weightp=2 / keyint=250 / keyint_min=25 / scenecut=40 / intra_refresh=0 / rc_lookahead=40 / rc=crf / mbtree=1 / crf=20.0 / qcomp=0.60 / qpmin=0 / qpmax=69 / qpstep=4 / ip_ratio=1.40 / aq=1:1.00
Language                                 : German
Default                                  : Yes
Forced                                   : No
Color primaries                          : BT.709
Transfer characteristics                 : BT.709
Matrix coefficients                      : BT.709

Audio #1
ID                                       : 2
Format                                   : AC-3
Format/Info                              : Audio Coding 3
Mode extension                           : CM (complete main)
Format settings, Endianness              : Big
Codec ID                                 : A_AC3
Duration                                 : 46mn 23s
Bit rate mode                            : Constant
Bit rate                                 : 384 Kbps
Channel(s)                               : 2 channels
Channel positions                        : Front: L R
Sampling rate                            : 48.0 KHz
Bit depth                                : 16 bits
Compression mode                         : Lossy
Stream size                              : 127 MiB (17%)
Language                                 : German
Default                                  : Yes
Forced                                   : No

Audio #2
ID                                       : 3
Format                                   : AC-3
Format/Info                              : Audio Coding 3
Mode extension                           : CM (complete main)
Format settings, Endianness              : Big
Codec ID                                 : A_AC3
Duration                                 : 46mn 23s
Bit rate mode                            : Constant
Bit rate                                 : 192 Kbps
Channel(s)                               : 2 channels
Channel positions                        : Front: L R
Sampling rate                            : 48.0 KHz
Bit depth                                : 16 bits
Compression mode                         : Lossy
Stream size                              : 63.7 MiB (8%)
Language                                 : English
Default                                  : No
Forced                                   : No



Download:
Share-Online.biz Share-Online.bizShare-Online.bizShare-Online.biz | Rapidgator.net Rapidgator.netRapidgator.netRapidgator.net
 

Kommentare