6 Guns 2010 720p BluRay x264 | Tenchi Muyo! Ryo-Ohki Episode 10 English Dubbed | Descargar Gauguin viaje a Tahití latino
 


 

DNS SERVER AENDERNum der staatlichen Zensur zu umgehen. Sollten wir von eurem Provider geseprrt werden, nutzt den TOR BROWSER oder ändert euren DNS SERVER.

Filmwünsche können bei uns im Forum abgegeben werden

Wir Speichern Nicht




 
 
 
Top Releases
3.Tage.in.Quiberon.2018.GERM...
Norman.2016.German.AC3D.DL.1...
Wo.steckt.Sidney.Hall.2017.G...
Chappie.2015.German.AC3.DL.1...
Solo.A.Star.Wars.Story.2018....
Der.Buchladen.der.Florance.G...
Jurassic.World.2.Das.gefalle...
Jurassic.World.2.Das.gefalle...
Racer.and.the.Jailbird.2017....
Racer.and.the.Jailbird.2017....

Cinedubs
The.Seagull.Eine.unerhoerte....
The.Seagull.Eine.unerhoerte....
First.Reformed.2017.German.D...
Mamma.Mia.2.Here.We.Go.Again...
First.Reformed.German.DL.AC3...
The.First.Purge.2018.German....
No.Way.Out.Gegen.die.Flammen...
First.Reformed.German.DL.AC3...
First.Reformed.German.DL.AC3...
The.First.Purge.German.DL.AC...

Neuerscheinungen 2017-18
The.Asian.Connection.2016.GE...
The.Asian.Connection.2016.GE...
Sharknado.6.The.Last.One.201...
Sharknado.6.The.Last.One.201...
Mom.and.Dad.2017.German.AC3....
Jurassic.World.2.Das.gefalle...
Jurassic.World.2.Das.gefalle...
Zombie.Nightmare.1987.MULTi....
The.Boneyard.1991.MULTi.COMP...
Rueckenwind.von.vorn.2018.Ge...

XXX
SexWithMuslims.18.09.07.Barb...
Roccos.Dirty.Girls.4.XXX.iNT...
TeenCreeper.E29.Bambi.Black....
TeensLikeItBig.18.09.09.Ella...
ShareMyBF.18.09.07.Ashley.Ad...
TeensLoveBlackCocks.18.09.10...
Teenikini.E59.Dillion.Harper...
TheLisaAnn.18.09.07.Feeling....
Spizoo.18.09.07.Lexi.Foxy.An...
SexArt.18.09.09.Elena.Vega.F...
TabooPOV.18.09.05.Sarah.Vand...
RealityJunkies.Teen.Hitchhik...
Strap.On.Sallys.XXX.1080p.WE...
SisLovesMe.18.09.07.Kasey.Mi...
RylskyArt.18.09.07.Elisia.My...
RoccoSiffredi.18.09.07.Gabri...
TheLifeErotic.18.09.09.Natal...
TeensLoveHugeCocks.18.09.07....
PlumperPass.18.09.10.Dippd.N...
Nubiles.18.09.09.Zoe.Parker....

3D
Solo.A.Star.Wars.Story.3D.20...
Solo.A.Star.Wars.Story.3D.20...
Die.Biene.Maja.2.Die.Honigsp...
Avengers.Infinity.War.3D.201...
Avengers.Infinity.War.3D.201...
Rampage.Big.Meets.Bigger.3D....
Rampage.Big.Meets.Bigger.3D....
Rampage.Big.Meets.Bigger.3D....
Winter.Games.3D.2013.DUAL.CO...
Tomb.Raider.3D.2018.German.7...
Rampage.Big.Meets.Bigger.3D....
Rampage.Big.Meets.Bigger.3D....
Tomb.Raider.3D.2018.MULTi.CO...
Pacific.Rim.Uprising.3D.2018...
Ready.Player.One.3D.2018.Ger...

Old_Stuff
Schimanski.-.Duisburg.Ruhror...
Akte.X.S02.German.DTS.DL.108...
How.I.Met.Your.Mother.S02.Ge...
Akte.X.S01.German.DTS.DL.108...
Den.Himmel.gibts.echt.DL.108...
Vikings.S02.German.DL.1080p....
Be.Kind.Rewind.Abgedreht.200...
Be.Kind.Rewind.Abgedreht.200...
Dracula.The.Dark.Lord.2012.G...
21.2008.German.DL.1080p.BluR...
Achtung.fertig.WK.Swissgerma...
The.Ouija.Exorcism.2015.MULT...
Meine.liebe.Rabenmutter.germ...
Da.Vincis.Demons.S01.Complet...
Eragon.Das.Vermaechtnis.der....

Filme
Into.the.Badlands.S03.COMPLE...
Four.Riders.1972.German.720p...
Four.Riders.1972.German.1080...
Gosford.Park.2001.German.DL....
Gosford.Park.2001.German.720...
Succession.S01.COMPLETE.Germ...
Succession.S01.COMPLETE.Germ...
X-MEN.2.2003.German.UHDBD.21...
X.Men.2.2003.German.DL.2160p...
Fear.The.Walking.Dead.S04.Ge...
Fear.The.Walking.Dead.S04.Ge...
Mein.Schwert.fuer.den.Koenig...
Fackeln.im.Sturm.aka.North.a...
X.Men.2000.German.DL.2160p.U...
Loewengrube.1989.S01D01.GERM...
Die.Vermaehlung.ihrer.Eltern...
X.Men.2000.German.DL.2160p.U...
Perfect.World.aka.A.Perfect....
Perfect.World.1993.German.DL...
Stalag.17.1953.German.AC3D.7...
Animal.Kingdom.S03.GERMAN.72...
Supernatural.S13.DL.DD51.Dub...
Supernatural.S13.DL.DD51.Dub...
Longmire.S05.COMPLETE.GERMAN...

 
 
The.Asian.Connection.2016.GERMAN.DL.1080p.BluRay.x264-UNiVERSUM

Jahr: 2016
Genre: Action, Drama
Sprache: Deutsch DTS | Englisch DTS
Laufzeit: 1h 31mn
Bitrate: 7 491 Kbps
Format: MKV
Größe: 4.79 GiB
Release:

Beschreibung:

Sam (Byron Gibson ) und sein Kumpel Jack (John Edward Lee ) leben in Thailand den Aussteiger-Gangster-Traum: ihre Banküberfälle gewähren ihnen ein luxuriöses Leben im tropischen Paradies, das Jack mit seiner Geliebten Avalon (Pim Bubear ) voll auskostet. Doch beim nächsten Raubzug geraten die Beiden an das Geld von Drogenbaron Gan Sirankiri (Steven Seagal ), der die Ganoven für vogelfrei erklären lässt. Während Sam bei einer Schießerei stirbt, machen Jack und Avalon als Bonnie und Clyde-Duo unbeirrt weiter. Ein unversöhnlicher Kampf nimmt langsam aber sicher Fahrt auf.Actionlegende Steven Seagal als knallharter Gangsterboss in der exotischen Kulisse Thailands – an seiner Seite Martial Arts-Kämpfer Michael Jai White. Action vom Feinsten!



Complete name                            : the.asian.connection.2016.german.dl.1080p.bluray.x264-universum.mkv
Format                                   : Matroska
Format version                           : Version 4 / Version 2
File size                                : 4.79 GiB
Duration                                 : 1h 31mn
Overall bit rate                         : 7 491 Kbps
Encoded date                             : UTC 2018-09-24 18:04:58
Writing application                      : mkvmerge v7.9.0 ('Birds') 64bit
Writing library                          : libebml v1.3.1 + libmatroska v1.4.2
DURATION                                 : 00:08:55.826000000
NUMBER_OF_FRAMES                         : 2
NUMBER_OF_BYTES                          : 73
_STATISTICS_WRITING_APP                  : mkvmerge v7.9.0 ('Birds') 64bit
_STATISTICS_WRITING_DATE_UTC             : 2018-09-24 18:04:58
_STATISTICS_TAGS                         : BPS DURATION NUMBER_OF_FRAMES NUMBER_OF_BYTES

Video
ID                                       : 1
Format                                   : AVC
Format/Info                              : Advanced Video Codec
Format profile                           : High@L4.1
Format settings, CABAC                   : Yes
Format settings, ReFrames                : 5 frames
Codec ID                                 : V_MPEG4/ISO/AVC
Duration                                 : 1h 31mn
Bit rate                                 : 4 324 Kbps
Width                                    : 1 920 pixels
Height                                   : 856 pixels
Display aspect ratio                     : 2.25:1
Frame rate mode                          : Constant
Frame rate                               : 23.976 fps
Color space                              : YUV
Chroma subsampling                       : 4:2:0
Bit depth                                : 8 bits
Scan type                                : Progressive
Bits/(Pixel*Frame)                       : 0.110
Stream size                              : 2.77 GiB (58%)
Writing library                          : x264 core 155 r2901 7d0ff22
Encoding settings                        : cabac=1 / ref=5 / deblock=1:-1:-1 / analyse=0x3:0x133 / me=umh / subme=8 / psy=1 / psy_rd=1.00:0.15 / mixed_ref=1 / me_range=16 / chroma_me=1 / trellis=2 / 8x8dct=1 / cqm=0 / deadzone=21,11 / fast_pskip=0 / chroma_qp_offset=-3 / threads=12 / lookahead_threads=2 / sliced_threads=0 / nr=0 / decimate=1 / interlaced=0 / bluray_compat=0 / constrained_intra=0 / bframes=3 / b_pyramid=2 / b_adapt=1 / b_bias=0 / direct=3 / weightb=1 / open_gop=0 / weightp=2 / keyint=250 / keyint_min=23 / scenecut=40 / intra_refresh=0 / rc_lookahead=40 / rc=crf / mbtree=1 / crf=20.0 / qcomp=0.60 / qpmin=10 / qpmax=69 / qpstep=4 / ip_ratio=1.40 / aq=1:1.00
Language                                 : German
Default                                  : Yes
Forced                                   : No
DURATION                                 : 01:31:32.821000000
NUMBER_OF_FRAMES                         : 131696
NUMBER_OF_BYTES                          : 3072254556
_STATISTICS_WRITING_APP                  : mkvmerge v7.9.0 ('Birds') 64bit
_STATISTICS_WRITING_DATE_UTC             : 2018-09-24 18:04:58
_STATISTICS_TAGS                         : BPS DURATION NUMBER_OF_FRAMES NUMBER_OF_BYTES

Audio #1
ID                                       : 2
Format                                   : DTS
Format/Info                              : Digital Theater Systems
Mode                                     : 16
Format settings, Endianness              : Big
Codec ID                                 : A_DTS
Duration                                 : 1h 31mn
Bit rate mode                            : Constant
Bit rate                                 : 1 509 Kbps
Channel(s)                               : 6 channels
Channel positions                        : Front: L C R, Side: L R, LFE
Sampling rate                            : 48.0 KHz
Bit depth                                : 24 bits
Compression mode                         : Lossy
Stream size                              : 988 MiB (20%)
Title                                    : DTS
Language                                 : German
Default                                  : Yes
Forced                                   : No

Audio #2
ID                                       : 3
Format                                   : DTS
Format/Info                              : Digital Theater Systems
Mode                                     : 16
Format settings, Endianness              : Big
Codec ID                                 : A_DTS
Duration                                 : 1h 31mn
Bit rate mode                            : Constant
Bit rate                                 : 1 509 Kbps
Channel(s)                               : 6 channels
Channel positions                        : Front: L C R, Side: L R, LFE
Sampling rate                            : 48.0 KHz
Bit depth                                : 24 bits
Compression mode                         : Lossy
Stream size                              : 988 MiB (20%)
Title                                    : DTS
Language                                 : English
Default                                  : No
Forced                                   : No

Text
ID                                       : 4
Format                                   : UTF-8
Codec ID                                 : S_TEXT/UTF8
Codec ID/Info                            : UTF-8 Plain Text
Title                                    : Forced
Language                                 : German
Default                                  : Yes
Forced                                   : No


Download:
Share Online Share OnlineShare OnlineShare Online
 

Kommentare