OnePlus Themes | Beauty4K 18 10 05 Shona River 480p MP4-XXX | Open Trader - Professional Training Program
 


 

DNS SERVER AENDERNum der staatlichen Zensur zu umgehen. Sollten wir von eurem Provider geseprrt werden, nutzt den TOR BROWSER oder ändert euren DNS SERVER.

Filmwünsche können bei uns im Forum abgegeben werden

Wir Speichern Nicht




 
 
 
Top Releases
Norman.2016.German.AC3D.DL.1...
Wo.steckt.Sidney.Hall.2017.G...
Chappie.2015.German.AC3.DL.1...
Solo.A.Star.Wars.Story.2018....
Der.Buchladen.der.Florance.G...
Jurassic.World.2.Das.gefalle...
Jurassic.World.2.Das.gefalle...
Racer.and.the.Jailbird.2017....
Racer.and.the.Jailbird.2017....
Racer.and.the.Jailbird.2017....

Cinedubs
The.Seagull.Eine.unerhoerte....
The.Seagull.Eine.unerhoerte....
First.Reformed.2017.German.D...
Mamma.Mia.2.Here.We.Go.Again...
First.Reformed.German.DL.AC3...
The.First.Purge.2018.German....
No.Way.Out.Gegen.die.Flammen...
First.Reformed.German.DL.AC3...
First.Reformed.German.DL.AC3...
The.First.Purge.German.DL.AC...

Neuerscheinungen 2017-18
Mom.and.Dad.2017.German.AC3....
Jurassic.World.2.Das.gefalle...
Jurassic.World.2.Das.gefalle...
Zombie.Nightmare.1987.MULTi....
The.Boneyard.1991.MULTi.COMP...
Rueckenwind.von.vorn.2018.Ge...
Rueckenwind.von.vorn.2018.Ge...
The.Hurricane.Heist.2018.Ger...
Alte.Zoepfe.2018.German.DL.1...
Alte.Zoepfe.2018.German.DL.7...

XXX
SexWithMuslims.18.09.07.Barb...
Roccos.Dirty.Girls.4.XXX.iNT...
TeenCreeper.E29.Bambi.Black....
TeensLikeItBig.18.09.09.Ella...
ShareMyBF.18.09.07.Ashley.Ad...
TeensLoveBlackCocks.18.09.10...
Teenikini.E59.Dillion.Harper...
TheLisaAnn.18.09.07.Feeling....
Spizoo.18.09.07.Lexi.Foxy.An...
SexArt.18.09.09.Elena.Vega.F...
TabooPOV.18.09.05.Sarah.Vand...
RealityJunkies.Teen.Hitchhik...
Strap.On.Sallys.XXX.1080p.WE...
SisLovesMe.18.09.07.Kasey.Mi...
RylskyArt.18.09.07.Elisia.My...
RoccoSiffredi.18.09.07.Gabri...
TheLifeErotic.18.09.09.Natal...
TeensLoveHugeCocks.18.09.07....
PlumperPass.18.09.10.Dippd.N...
Nubiles.18.09.09.Zoe.Parker....

3D
Solo.A.Star.Wars.Story.3D.20...
Solo.A.Star.Wars.Story.3D.20...
Die.Biene.Maja.2.Die.Honigsp...
Avengers.Infinity.War.3D.201...
Avengers.Infinity.War.3D.201...
Rampage.Big.Meets.Bigger.3D....
Rampage.Big.Meets.Bigger.3D....
Rampage.Big.Meets.Bigger.3D....
Winter.Games.3D.2013.DUAL.CO...
Tomb.Raider.3D.2018.German.7...
Rampage.Big.Meets.Bigger.3D....
Rampage.Big.Meets.Bigger.3D....
Tomb.Raider.3D.2018.MULTi.CO...
Pacific.Rim.Uprising.3D.2018...
Ready.Player.One.3D.2018.Ger...

Old_Stuff
Schimanski.-.Duisburg.Ruhror...
Akte.X.S02.German.DTS.DL.108...
How.I.Met.Your.Mother.S02.Ge...
Akte.X.S01.German.DTS.DL.108...
Den.Himmel.gibts.echt.DL.108...
Vikings.S02.German.DL.1080p....
Be.Kind.Rewind.Abgedreht.200...
Be.Kind.Rewind.Abgedreht.200...
Dracula.The.Dark.Lord.2012.G...
21.2008.German.DL.1080p.BluR...
Achtung.fertig.WK.Swissgerma...
The.Ouija.Exorcism.2015.MULT...
Meine.liebe.Rabenmutter.germ...
Da.Vincis.Demons.S01.Complet...
Eragon.Das.Vermaechtnis.der....

Filme
Gosford.Park.2001.German.DL....
Gosford.Park.2001.German.720...
Succession.S01.COMPLETE.Germ...
Succession.S01.COMPLETE.Germ...
X-MEN.2.2003.German.UHDBD.21...
X.Men.2.2003.German.DL.2160p...
Fear.The.Walking.Dead.S04.Ge...
Fear.The.Walking.Dead.S04.Ge...
Mein.Schwert.fuer.den.Koenig...
Fackeln.im.Sturm.aka.North.a...
X.Men.2000.German.DL.2160p.U...
Loewengrube.1989.S01D01.GERM...
Die.Vermaehlung.ihrer.Eltern...
X.Men.2000.German.DL.2160p.U...
Perfect.World.aka.A.Perfect....
Perfect.World.1993.German.DL...
Stalag.17.1953.German.AC3D.7...
Animal.Kingdom.S03.GERMAN.72...
Supernatural.S13.DL.DD51.Dub...
Supernatural.S13.DL.DD51.Dub...
Longmire.S05.COMPLETE.GERMAN...
Snowfall.S02.German.DD51.Dub...
Into.the.Badlands.S03.German...
Into.the.Badlands.S03.German...

 
 
The.Seagull.Eine.unerhoerte.Liebe.German.DL.AC3.1080p.WEB.h264-PsO

Jahr: 2018
Genre: Drama
Sprache: Deutsch AC3 | Englisch AC3
Laufzeit: 1h 38mn
Bitrate: 5 286 Kbps
Format: MKV
Größe: 3.64 GiB
Release:

Beschreibung:

Auf einem Seegrundstück in Russland finden sich im Sommer viele Freunde und Familienmitglieder ein. Darunter auch die alternde Schauspielerin Irina Arkadina (Annette Bening), die hier ihren Bruder Pjotr Nikolayevich Sorin (Brian Dennehy) und dessen Sohn Konstantin (Billy Howle) besucht. Begleitet wird sie von ihrem Liebhaber, dem Schriftsteller Boris Trigorin (Corey Stoll). Doch alle sind immer damit beschäftigt, leidenschaftlich jemanden zu lieben, der aber wiederum jemand anderen liebt. So entfaltet sch eine Tragikkomödie über Kunst, Rum, menschlicher Naivität und dem Bedürfnis, ein zweckgerichtetes Leben zu führen.



Complete name                            : pso-seagull_web.1080p.mkv
Format                                   : Matroska
Format version                           : Version 4 / Version 2
File size                                : 3.64 GiB
Duration                                 : 1h 38mn
Overall bit rate                         : 5 286 Kbps
Encoded date                             : UTC 2018-09-24 14:57:14
Writing application                      : mkvmerge v8.3.0 ('Over the Horizon') 64bit
Writing library                          : libebml v1.3.1 + libmatroska v1.4.2
DURATION                                 : 01:13:39.961000000
NUMBER_OF_FRAMES                         : 3
NUMBER_OF_BYTES                          : 104
_STATISTICS_WRITING_APP                  : mkvmerge v8.3.0 ('Over the Horizon') 64bit
_STATISTICS_WRITING_DATE_UTC             : 2018-09-24 14:57:14
_STATISTICS_TAGS                         : BPS DURATION NUMBER_OF_FRAMES NUMBER_OF_BYTES

Video
ID                                       : 1
Format                                   : AVC
Format/Info                              : Advanced Video Codec
Format profile                           : High@L4.0
Format settings, CABAC                   : Yes
Format settings, ReFrames                : 5 frames
Codec ID                                 : V_MPEG4/ISO/AVC
Duration                                 : 1h 38mn
Bit rate                                 : 4 412 Kbps
Width                                    : 1 920 pixels
Height                                   : 800 pixels
Display aspect ratio                     : 2.40:1
Frame rate mode                          : Constant
Frame rate                               : 23.976 fps
Color space                              : YUV
Chroma subsampling                       : 4:2:0
Bit depth                                : 8 bits
Scan type                                : Progressive
Bits/(Pixel*Frame)                       : 0.120
Stream size                              : 3.04 GiB (83%)
Language                                 : English
Default                                  : Yes
Forced                                   : No
Color primaries                          : BT.709
Transfer characteristics                 : BT.709
Matrix coefficients                      : BT.709

Audio #1
ID                                       : 2
Format                                   : AC-3
Format/Info                              : Audio Coding 3
Mode extension                           : CM (complete main)
Format settings, Endianness              : Big
Codec ID                                 : A_AC3
Duration                                 : 1h 38mn
Bit rate mode                            : Constant
Bit rate                                 : 384 Kbps
Channel(s)                               : 6 channels
Channel positions                        : Front: L C R, Side: L R, LFE
Sampling rate                            : 48.0 KHz
Bit depth                                : 16 bits
Compression mode                         : Lossy
Delay relative to video                  : -42ms
Stream size                              : 271 MiB (7%)
Language                                 : German
Default                                  : Yes
Forced                                   : Yes

Audio #2
ID                                       : 3
Format                                   : AC-3
Format/Info                              : Audio Coding 3
Mode extension                           : CM (complete main)
Format settings, Endianness              : Big
Codec ID                                 : A_AC3
Duration                                 : 1h 38mn
Bit rate mode                            : Constant
Bit rate                                 : 384 Kbps
Channel(s)                               : 6 channels
Channel positions                        : Front: L C R, Side: L R, LFE
Sampling rate                            : 48.0 KHz
Bit depth                                : 16 bits
Compression mode                         : Lossy
Delay relative to video                  : -42ms
Stream size                              : 271 MiB (7%)
Language                                 : English
Default                                  : No
Forced                                   : No

Text
ID                                       : 4
Format                                   : UTF-8
Codec ID                                 : S_TEXT/UTF8
Codec ID/Info                            : UTF-8 Plain Text
Title                                    : forced
Language                                 : German
Default                                  : Yes
Forced                                   : Yes


Download:
Share Online Share OnlineShare OnlineShare Online
 

Kommentare