The Departed | ☑ Fiche du Jeu | False Flag (22)
 


 

DNS SERVER AENDERNum der staatlichen Zensur zu umgehen. Sollten wir von eurem Provider geseprrt werden, nutzt den TOR BROWSER oder ändert euren DNS SERVER.

Filmwünsche können bei uns im Forum abgegeben werden

Wir Speichern Nicht




 
 
 
Top Releases
Norman.2016.German.AC3D.DL.1...
Wo.steckt.Sidney.Hall.2017.G...
Chappie.2015.German.AC3.DL.1...
Solo.A.Star.Wars.Story.2018....
Der.Buchladen.der.Florance.G...
Jurassic.World.2.Das.gefalle...
Jurassic.World.2.Das.gefalle...
Racer.and.the.Jailbird.2017....
Racer.and.the.Jailbird.2017....
Racer.and.the.Jailbird.2017....

Cinedubs
First.Reformed.2017.German.D...
Mamma.Mia.2.Here.We.Go.Again...
First.Reformed.German.DL.AC3...
The.First.Purge.2018.German....
No.Way.Out.Gegen.die.Flammen...
First.Reformed.German.DL.AC3...
First.Reformed.German.DL.AC3...
The.First.Purge.German.DL.AC...
The.First.Purge.German.DL.AC...
Book.Club.Das.Beste.kommt.n...

Neuerscheinungen 2017-18
Mom.and.Dad.2017.German.AC3....
Jurassic.World.2.Das.gefalle...
Jurassic.World.2.Das.gefalle...
Zombie.Nightmare.1987.MULTi....
The.Boneyard.1991.MULTi.COMP...
Rueckenwind.von.vorn.2018.Ge...
Rueckenwind.von.vorn.2018.Ge...
The.Hurricane.Heist.2018.Ger...
Alte.Zoepfe.2018.German.DL.1...
Alte.Zoepfe.2018.German.DL.7...

XXX
SexWithMuslims.18.09.07.Barb...
Roccos.Dirty.Girls.4.XXX.iNT...
TeenCreeper.E29.Bambi.Black....
TeensLikeItBig.18.09.09.Ella...
ShareMyBF.18.09.07.Ashley.Ad...
TeensLoveBlackCocks.18.09.10...
Teenikini.E59.Dillion.Harper...
TheLisaAnn.18.09.07.Feeling....
Spizoo.18.09.07.Lexi.Foxy.An...
SexArt.18.09.09.Elena.Vega.F...
TabooPOV.18.09.05.Sarah.Vand...
RealityJunkies.Teen.Hitchhik...
Strap.On.Sallys.XXX.1080p.WE...
SisLovesMe.18.09.07.Kasey.Mi...
RylskyArt.18.09.07.Elisia.My...
RoccoSiffredi.18.09.07.Gabri...
TheLifeErotic.18.09.09.Natal...
TeensLoveHugeCocks.18.09.07....
PlumperPass.18.09.10.Dippd.N...
Nubiles.18.09.09.Zoe.Parker....

3D
Solo.A.Star.Wars.Story.3D.20...
Solo.A.Star.Wars.Story.3D.20...
Die.Biene.Maja.2.Die.Honigsp...
Avengers.Infinity.War.3D.201...
Avengers.Infinity.War.3D.201...
Rampage.Big.Meets.Bigger.3D....
Rampage.Big.Meets.Bigger.3D....
Rampage.Big.Meets.Bigger.3D....
Winter.Games.3D.2013.DUAL.CO...
Tomb.Raider.3D.2018.German.7...
Rampage.Big.Meets.Bigger.3D....
Rampage.Big.Meets.Bigger.3D....
Tomb.Raider.3D.2018.MULTi.CO...
Pacific.Rim.Uprising.3D.2018...
Ready.Player.One.3D.2018.Ger...

Old_Stuff
Schimanski.-.Duisburg.Ruhror...
Akte.X.S02.German.DTS.DL.108...
How.I.Met.Your.Mother.S02.Ge...
Akte.X.S01.German.DTS.DL.108...
Den.Himmel.gibts.echt.DL.108...
Vikings.S02.German.DL.1080p....
Be.Kind.Rewind.Abgedreht.200...
Be.Kind.Rewind.Abgedreht.200...
Dracula.The.Dark.Lord.2012.G...
21.2008.German.DL.1080p.BluR...
Achtung.fertig.WK.Swissgerma...
The.Ouija.Exorcism.2015.MULT...
Meine.liebe.Rabenmutter.germ...
Da.Vincis.Demons.S01.Complet...
Eragon.Das.Vermaechtnis.der....

Filme
Gosford.Park.2001.German.DL....
Gosford.Park.2001.German.720...
Succession.S01.COMPLETE.Germ...
Succession.S01.COMPLETE.Germ...
X-MEN.2.2003.German.UHDBD.21...
X.Men.2.2003.German.DL.2160p...
Fear.The.Walking.Dead.S04.Ge...
Fear.The.Walking.Dead.S04.Ge...
Mein.Schwert.fuer.den.Koenig...
Fackeln.im.Sturm.aka.North.a...
X.Men.2000.German.DL.2160p.U...
Loewengrube.1989.S01D01.GERM...
Die.Vermaehlung.ihrer.Eltern...
X.Men.2000.German.DL.2160p.U...
Perfect.World.aka.A.Perfect....
Perfect.World.1993.German.DL...
Stalag.17.1953.German.AC3D.7...
Animal.Kingdom.S03.GERMAN.72...
Supernatural.S13.DL.DD51.Dub...
Supernatural.S13.DL.DD51.Dub...
Longmire.S05.COMPLETE.GERMAN...
Snowfall.S02.German.DD51.Dub...
Into.the.Badlands.S03.German...
Into.the.Badlands.S03.German...

 
 
Gosford.Park.2001.German.720p.BluRay.x264-iNKLUSiON

Jahr: 2001
Genre: Komödie, Drama
Sprache: Deutsch DTS
Laufzeit: 2h 17mn
Bitrate: 5 670 Kbps
Format: MKV
Größe: 5.45 GiB
Release:

Beschreibung:

November 1932: Sir William McCordle und seine Frau Lady Silvia laden zu einer exklusiven Wochenendgesellschaft auf den prunkvollen Landsitz Gosford Park. Zum illustren Kreis der Gäste – den “Above Stairs” – zählen u.a. eine Gräfin, ein Kriegsheld, der britische Schauspieler Ivor Novello und ein amerikanischer Filmproduzent. Während sich die Gäste in den Salons zusammenfinden sammelt sich “Below Stairs” in den Küchen und Korridoren Dienerschaft und Angestellte. Doch in Gosford Park ist nichts wie es scheint, weder an den Tischen der erlesenen Gesellschaft noch unter den Bediensteten … Die Ereignisse überschlagen sich und es wird schnell klar, dass die Gesellschaften nicht so getrennt sind, wie es zuerst aussehen mag und endet am Ende mit einem Mord (oder sind es zwei …?)



Complete name                            : inkl-gosfordpark-720p.mkv
Format                                   : Matroska
Format version                           : Version 4 / Version 2
File size                                : 5.45 GiB
Duration                                 : 2h 17mn
Overall bit rate                         : 5 670 Kbps
Encoded date                             : UTC 2018-09-21 22:30:54
Writing application                      : mkvmerge v9.0.1 ('Obstacles') 64bit
Writing library                          : libebml v1.3.3 + libmatroska v1.4.4
DURATION                                 : 02:17:40.171000000
NUMBER_OF_FRAMES                         : 774391
NUMBER_OF_BYTES                          : 1558074692
_STATISTICS_WRITING_APP                  : mkvmerge v9.0.1 ('Obstacles') 64bit
_STATISTICS_WRITING_DATE_UTC             : 2018-09-21 22:30:54
_STATISTICS_TAGS                         : BPS DURATION NUMBER_OF_FRAMES NUMBER_OF_BYTES

Video
ID                                       : 1
Format                                   : AVC
Format/Info                              : Advanced Video Codec
Format profile                           : High@L4.1
Format settings, CABAC                   : Yes
Format settings, ReFrames                : 5 frames
Codec ID                                 : V_MPEG4/ISO/AVC
Duration                                 : 2h 17mn
Bit rate                                 : 4 159 Kbps
Width                                    : 1 280 pixels
Height                                   : 544 pixels
Display aspect ratio                     : 2.35:1
Frame rate mode                          : Constant
Frame rate                               : 23.976 fps
Color space                              : YUV
Chroma subsampling                       : 4:2:0
Bit depth                                : 8 bits
Scan type                                : Progressive
Bits/(Pixel*Frame)                       : 0.249
Stream size                              : 3.89 GiB (71%)
Writing library                          : x264 core 155 r2901 7d0ff22
Encoding settings                        : cabac=1 / ref=5 / deblock=1:-1:-1 / analyse=0x3:0x113 / me=umh / subme=7 / psy=1 / psy_rd=1.00:0.00 / mixed_ref=1 / me_range=16 / chroma_me=1 / trellis=1 / 8x8dct=1 / cqm=0 / deadzone=21,11 / fast_pskip=0 / chroma_qp_offset=-2 / threads=12 / lookahead_threads=2 / sliced_threads=0 / nr=0 / decimate=1 / interlaced=0 / bluray_compat=0 / constrained_intra=0 / bframes=3 / b_pyramid=2 / b_adapt=1 / b_bias=0 / direct=3 / weightb=1 / open_gop=0 / weightp=2 / keyint=250 / keyint_min=23 / scenecut=40 / intra_refresh=0 / rc_lookahead=40 / rc=2pass / mbtree=1 / bitrate=4159 / ratetol=1.0 / qcomp=0.60 / qpmin=0 / qpmax=69 / qpstep=4 / cplxblur=20.0 / qblur=0.5 / ip_ratio=1.40 / aq=1:1.00
Default                                  : Yes
Forced                                   : No

Audio
ID                                       : 2
Format                                   : DTS
Format/Info                              : Digital Theater Systems
Mode                                     : 16
Format settings, Endianness              : Big
Codec ID                                 : A_DTS
Duration                                 : 2h 17mn
Bit rate mode                            : Constant
Bit rate                                 : 1 509 Kbps
Channel(s)                               : 6 channels
Channel positions                        : Front: L C R, Side: L R, LFE
Sampling rate                            : 48.0 KHz
Bit depth                                : 24 bits
Compression mode                         : Lossy
Stream size                              : 1.45 GiB (27%)
Language                                 : German
Default                                  : Yes
Forced                                   : No


Download:
Share Online Share OnlineShare OnlineShare Online
 

Kommentare