Emmas Chatroom | 4 1 2018-04-15Fear the Walking Dead - What's Your Story? | Горячие новинки
 


 

DNS SERVER AENDERNum der staatlichen Zensur zu umgehen. Sollten wir von eurem Provider geseprrt werden, nutzt den TOR BROWSER oder ändert euren DNS SERVER.

Filmwünsche können bei uns im Forum abgegeben werden

Wir Speichern Nicht




 
 
 
Top Releases
Stronger.2017.German.720p.Bl...
Nur.Gott.kann.mich.richten.2...
Nur.Gott.kann.mich.richten.2...
Endspiel.2018.German.DL.Doku...
Endspiel.2018.German.DL.Doku...
Deadpool.2.THEATRiCAL.2018.G...
Deadpool.2.THEATRiCAL.2018.G...
Mercury.13.2018.German.DL.Do...
Mercury.13.2018.German.DL.Do...
Die.Wolken.von.Sils.Maria.20...

Cinedubs
The.Equalizer.2.TS.LD.German...
Der.Hauptmann.2017.German.AA...
Der.Hauptmann.2017.German.AA...
Ghost.Stories.2017.German.AC...
Ghost.Stories.2017.German.AC...
Oceans.8.German.DL.AC3.Dubbe...
Oceans.8.German.DL.AC3.Dubbe...
Hereditary.Das.Vermaechtnis....
Hereditary.Das.Vermaechtnis....
Oceans.8.2018.German.DL.AC3D...

Neuerscheinungen 2017-18
Kings.2017.German.720p.BluRa...
Kings.2017.German.DL.1080p.B...
Winchester.Das.Haus.der.Verd...
Bodycheck.Youngblood.1986.MU...
The.End.2017.GERMAN.DUAL.COM...
The.End.2017.GERMAN.1080p.Bl...
Vater.des.Jahres.2018.German...
The.End.2017.GERMAN.720p.Blu...
Derren.Brown.The.Push.2018.G...
Derren.Brown.The.Push.2018.G...

XXX
SisLovesMe.18.08.17.April.An...
With.Milf.And.Sugar.Please.2...
SexWithMuslims.18.08.17.Mila...
PureCFNM.18.08.17.Caitlyn.Sm...
X-Sensual.18.08.07.Regin.Spa...
TabooPOV.18.08.16.Lauren.Phi...
PornMegaLoad.18.08.20.Violet...
SweetheartVideo.18.08.21.Che...
ReadyOrNotHereICum.18.08.20....
WowGirls.18.08.20.Anna.Di.Li...
Swallowed.18.08.16.Julie.Kay...
Spizoo.18.08.20.Shelby.Paris...
PropertySex.18.08.17.Lily.Ra...
StrandedTeens.18.08.16.Sicil...
SlimeWave.18.08.20.Cutie.Is....
Your.Moms.Twat.Is.Hot.9.XXX....
PureTaboo.18.08.16.Elena.Kos...
SweetheartVideo.Lesbian.Step...
Public.Sex.8.XXX.1080p.WEBRi...
Swallowed.18.08.20.Giselle.P...

3D
Avengers.Infinity.War.3D.201...
Rampage.Big.Meets.Bigger.3D....
Rampage.Big.Meets.Bigger.3D....
Rampage.Big.Meets.Bigger.3D....
Winter.Games.3D.2013.DUAL.CO...
Tomb.Raider.3D.2018.German.7...
Rampage.Big.Meets.Bigger.3D....
Rampage.Big.Meets.Bigger.3D....
Tomb.Raider.3D.2018.MULTi.CO...
Pacific.Rim.Uprising.3D.2018...
Ready.Player.One.3D.2018.Ger...
Rampage.-.Big.Meets.Bigger.2...
Ready.Player.One.2018.3D.HOU...
Ready.Player.One.2018.3D.HSB...
Ready.Player.One.3D.2018.MUL...

Old_Stuff
21.2008.German.DL.1080p.BluR...
Achtung.fertig.WK.Swissgerma...
The.Ouija.Exorcism.2015.MULT...
Meine.liebe.Rabenmutter.germ...
Da.Vincis.Demons.S01.Complet...
Eragon.Das.Vermaechtnis.der....
Adele.und.das.Geheimnis.des....
Die.fabelhafte.Welt.der.Amel...
Haus.des.Geldes.S01.German.M...
How.I.Met.Your.Mother.S01.Ge...
The.Dark.Knight.Rises.2012.M...
Weissensee.S03.2015.GERMAN.C...
Weissensee.S01+S02.2010.GERM...
Die.Unglaublichen.-.The.Incr...
Der.grosse.Trick.1978.German...

Filme
Ozark.S01.COMPLETE.German.DD...
Ozark.S01.COMPLETE.German.DD...
Narcos.S03D01.MULTi.COMPLETE...
Tom.Clancys.Jack.Ryan.S01.Ge...
The.Last.Man.On.Earth.S04.Ge...
The.Last.Man.On.Earth.S04.Ge...
Missions.S01.GERMAN.DUBBED.7...
Narcos.S03.COMPLETE.German.D...
Gone.Baby.Gone.2007.German.D...
London.Boulevard.2010.German...
Celeste.und.Jesse.German.DL....
CBGB.2013.GERMAN.AC3D.DL.108...
Unsere.Erde.2.2017.German.DT...
Unsere.Erde.2.2017.German.DT...
Unsere.Erde.2.2017.German.DT...
Winchester.Das.Haus.der.Verd...
Cabal.-.Die.Brut.der.Nacht.C...
Car.Wash.1976.German.AC3D.DL...
Feuer.ueber.England.1937.Ger...
Sin.City.2005.DTS-HD.German....
Elliot.das.Schmunzelmonster....
Nur.fuer.Offiziere.1964.Germ...
Arrow.S06.GERMAN.DL.1080p.HD...
Arrow.S06.GERMAN.DL.720p.HDT...

 
 
Ozark.S01.COMPLETE.German.DD51.DL.1080p.NetflixUHD.x264-TVS

Jahr: 2017
Genre: Krimi | Drama | Thriller
Sprache: Deutsch AC3 | Englisch AC3
Laufzeit: 1h je Folge
Bitrate: 6200 Kbps
Format: MKV
Größe: 2,9 GB je Folge
Release:

Beschreibung:

Der selbstständige Finanzberater Marty Byrde sieht sich gezwungen, mit seiner Frau Wendy und den Kindern Charlotte und Jonah von Chicago in ein Sommerresort in den Missouri Ozarks zu ziehen. Um sich und seine Familie vor der Rache eines Drogenbosses zu schützen, verspricht er diesem, 500 Millionen US-Dollar in fünf Jahren zu waschen. In Ozark angekommen, muss er bald erkennen, dass er nicht der einzige mit kriminellen Geschäften ist. Ozark entpuppt sich als kleine Welt des Drogenhandels und der Geldwäsche.



General
Complete name                            : Ozark.S01E01.Sugarwood.German.DD51.DL.1080p.NetflixUHD.x264-TVS\tvs-ozark-dd51-dl-18p-nfuhd-x264-101.mkv
Format                                   : Matroska
Format version                           : Version 4 / Version 2
File size                                : 2.91 GiB
Duration                                 : 58mn 10s
Overall bit rate                         : 7 166 Kbps
Encoded date                             : UTC 2017-07-22 19:05:58
Writing application                      : mkvmerge v13.0.0 ('The Juggler') 64bit
Writing library                          : libebml v1.3.4 + libmatroska v1.4.5
DURATION                                 : 00:57:05.005000000
NUMBER_OF_FRAMES                         : 5
NUMBER_OF_BYTES                          : 147
_STATISTICS_WRITING_APP                  : mkvmerge v13.0.0 ('The Juggler') 64bit
_STATISTICS_WRITING_DATE_UTC             : 2017-07-22 19:05:58
_STATISTICS_TAGS                         : BPS DURATION NUMBER_OF_FRAMES NUMBER_OF_BYTES

Video
ID                                       : 1
Format                                   : AVC
Format/Info                              : Advanced Video Codec
Format profile                           : High@L4.1
Format settings, CABAC                   : Yes
Format settings, ReFrames                : 4 frames
Codec ID                                 : V_MPEG4/ISO/AVC
Duration                                 : 58mn 10s
Bit rate                                 : 6 255 Kbps
Width                                    : 1 920 pixels
Height                                   : 960 pixels
Display aspect ratio                     : 2.000
Frame rate mode                          : Constant
Frame rate                               : 23.976 fps
Color space                              : YUV
Chroma subsampling                       : 4:2:0
Bit depth                                : 8 bits
Scan type                                : Progressive
Bits/(Pixel*Frame)                       : 0.142
Stream size                              : 2.54 GiB (87%)
Writing library                          : x264 core 144 r2525 40bb568
Encoding settings                        : cabac=1 / ref=4 / deblock=1:-3:-3 / analyse=0x3:0x133 / me=umh / subme=10 / psy=1 / psy_rd=1.00:0.00 / mixed_ref=1 / me_range=48 / chroma_me=1 / trellis=2 / 8x8dct=1 / cqm=0 / deadzone=21,11 / fast_pskip=0 / chroma_qp_offset=-2 / threads=24 / lookahead_threads=4 / sliced_threads=0 / nr=0 / decimate=0 / interlaced=0 / bluray_compat=0 / constrained_intra=0 / bframes=8 / b_pyramid=2 / b_adapt=2 / b_bias=0 / direct=3 / weightb=1 / open_gop=0 / weightp=2 / keyint=250 / keyint_min=23 / scenecut=40 / intra_refresh=0 / rc=crf / mbtree=0 / crf=18.0 / qcomp=0.60 / qpmin=0 / qpmax=69 / qpstep=4 / ip_ratio=1.30 / pb_ratio=1.20 / aq=3:0.80
Default                                  : Yes
Forced                                   : No
DURATION                                 : 00:58:08.777000000
NUMBER_OF_FRAMES                         : 83647
NUMBER_OF_BYTES                          : 2790225225
_STATISTICS_WRITING_APP                  : mkvmerge v13.0.0 ('The Juggler') 64bit
_STATISTICS_WRITING_DATE_UTC             : 2017-07-22 19:05:58
_STATISTICS_TAGS                         : BPS DURATION NUMBER_OF_FRAMES NUMBER_OF_BYTES

Audio #1
ID                                       : 2
Format                                   : AC-3
Format/Info                              : Audio Coding 3
Mode extension                           : CM (complete main)
Format settings, Endianness              : Big
Codec ID                                 : A_AC3
Duration                                 : 58mn 10s
Bit rate mode                            : Constant
Bit rate                                 : 384 Kbps
Channel(s)                               : 6 channels
Channel positions                        : Front: L C R, Side: L R, LFE
Sampling rate                            : 48.0 KHz
Bit depth                                : 16 bits
Compression mode                         : Lossy
Stream size                              : 160 MiB (5%)
Language                                 : German
Default                                  : Yes
Forced                                   : No

Audio #2
ID                                       : 3
Format                                   : AC-3
Format/Info                              : Audio Coding 3
Mode extension                           : CM (complete main)
Format settings, Endianness              : Big
Codec ID                                 : A_AC3
Duration                                 : 58mn 10s
Bit rate mode                            : Constant
Bit rate                                 : 384 Kbps
Channel(s)                               : 6 channels
Channel positions                        : Front: L C R, Side: L R, LFE
Sampling rate                            : 48.0 KHz
Bit depth                                : 16 bits
Compression mode                         : Lossy
Stream size                              : 160 MiB (5%)
Language                                 : English
Default                                  : No
Forced                                   : No

Text #1
ID                                       : 4
Format                                   : UTF-8
Codec ID                                 : S_TEXT/UTF8
Codec ID/Info                            : UTF-8 Plain Text
Title                                    : German Forced
Language                                 : German
Default                                  : Yes
Forced                                   : Yes

Text #2
ID                                       : 5
Format                                   : UTF-8
Codec ID                                 : S_TEXT/UTF8
Codec ID/Info                            : UTF-8 Plain Text
Title                                    : English Forced
Language                                 : English
Default                                  : No
Forced                                   : Yes

Text #3
ID                                       : 6
Format                                   : UTF-8
Codec ID                                 : S_TEXT/UTF8
Codec ID/Info                            : UTF-8 Plain Text
Title                                    : German
Language                                 : German
Default                                  : No
Forced                                   : No

Text #4
ID                                       : 7
Format                                   : UTF-8
Codec ID                                 : S_TEXT/UTF8
Codec ID/Info                            : UTF-8 Plain Text
Title                                    : English
Language                                 : English
Default                                  : No
Forced                                   : No



Download:
Share-Online.biz Share-Online.bizShare-Online.bizShare-Online.biz | Rapidgator.net Rapidgator.netRapidgator.netRapidgator.net
 

Kommentare