2018 Game Over, Man! | Island Subtitle Indonesia | CAM The Predator
 


 

DNS SERVER AENDERNum der staatlichen Zensur zu umgehen. Sollten wir von eurem Provider geseprrt werden, nutzt den TOR BROWSER oder ändert euren DNS SERVER.

Filmwünsche können bei uns im Forum abgegeben werden

Wir Speichern Nicht




 
 
 
Top Releases
Deadpool.2.Super.Duper.Cut.2...
David.Brent.Life.on.the.Road...
David.Brent.Life.on.the.Road...
Amanda.Knox.2016.German.DL.D...
Amanda.Knox.2016.German.DL.D...
22.Bullets.2010.German.DL.10...
Unsere.Erde.2.Earth.One.Amaz...
Avengers.Infinity.War.2018.M...
El.Autor.2017.German.1080p.W...
El.Autor.2017.German.720p.WE...

Cinedubs
The.Equalizer.2.TS.LD.German...
Der.Hauptmann.2017.German.AA...
Der.Hauptmann.2017.German.AA...
Ghost.Stories.2017.German.AC...
Ghost.Stories.2017.German.AC...
Oceans.8.German.DL.AC3.Dubbe...
Oceans.8.German.DL.AC3.Dubbe...
Hereditary.Das.Vermaechtnis....
Hereditary.Das.Vermaechtnis....
Oceans.8.2018.German.DL.AC3D...

Neuerscheinungen 2017-18
Vater.des.Jahres.2018.German...
The.End.2017.GERMAN.720p.Blu...
Derren.Brown.The.Push.2018.G...
Derren.Brown.The.Push.2018.G...
Das.Vermaechtnis.des.Weisswe...
Das.Vermaechtnis.des.Weisswe...
Barry.2016.German.DL.720p.WE...
Barry.2016.German.DL.1080p.W...
Godzilla.Eine.Stadt.am.Rande...
Godzilla.Eine.Stadt.am.Rande...

XXX
LaCochonne.18.08.21.Clementi...
KarupsPC.18.08.20.Tarra.And....
MilfsLikeItBig.18.08.21.Nina...
NewSensations.18.08.17.Abell...
Nubiles.18.08.21.Eva.Kays.Wa...
Nubiles.18.08.17.Eva.Kays.Pl...
MetArtX.18.08.21.Sabrisse.A....
ManuelFerrara.18.08.20.Lena....
OldYoungLesbianLove.18.08.20...
MilfHunter.18.08.20.Lela.Sta...
OnlyBlowJob.18.08.16.Silvia....
Nubiles.18.08.20.Eliza.Ibarr...
KinkyFamily.18.08.11.Ana.Ros...
MilfsLikeItBig.18.08.20.Chan...
MetArt.18.08.21.Jennifer.Lov...
Nubiles.18.08.16.Eliza.Ibarr...
MomsBangTeens.18.08.21.Lexi....
Nubiles.18.08.21.Maria.Rubio...
No.Not.My.Wrinkled.Starfish....
NFBusty.18.08.17.Nikki.Delan...

3D
Avengers.Infinity.War.3D.201...
Rampage.Big.Meets.Bigger.3D....
Rampage.Big.Meets.Bigger.3D....
Rampage.Big.Meets.Bigger.3D....
Winter.Games.3D.2013.DUAL.CO...
Tomb.Raider.3D.2018.German.7...
Rampage.Big.Meets.Bigger.3D....
Rampage.Big.Meets.Bigger.3D....
Tomb.Raider.3D.2018.MULTi.CO...
Pacific.Rim.Uprising.3D.2018...
Ready.Player.One.3D.2018.Ger...
Rampage.-.Big.Meets.Bigger.2...
Ready.Player.One.2018.3D.HOU...
Ready.Player.One.2018.3D.HSB...
Ready.Player.One.3D.2018.MUL...

Old_Stuff
Meine.liebe.Rabenmutter.germ...
Da.Vincis.Demons.S01.Complet...
Eragon.Das.Vermaechtnis.der....
Adele.und.das.Geheimnis.des....
Die.fabelhafte.Welt.der.Amel...
Haus.des.Geldes.S01.German.M...
How.I.Met.Your.Mother.S01.Ge...
The.Dark.Knight.Rises.2012.M...
Weissensee.S03.2015.GERMAN.C...
Weissensee.S01+S02.2010.GERM...
Die.Unglaublichen.-.The.Incr...
Der.grosse.Trick.1978.German...
Sully.2016.MULTi.COMPLETE.BL...
Tremors.3.Die.neue.Brut.2001...
Die.Indianer.von.Cleveland.2...

Filme
Warrior.2011.German.DL.DTSD....
Ein.Zwilling.kommt.selten.al...
Ein.Zwilling.kommt.selten.al...
Dream.Cruise.Albtraum.aus.de...
Flodder.Eine.Familie.zum.Knu...
Buck.Rogers.1979.German.DL.A...
Buck.Rogers.1979.German.DL.A...
A.Thought.of.Ecstasy.2017.Ge...
Flicka.1943.German.AC3D.DL.1...
Meine.teuflischen.Nachbarn.1...
Flodder.Forever.Eine.Familie...
Endstation.Horror.UNCUT.1972...
Der.alte.Mann.und.das.Kind.1...
Motel.Massaker.1986.German.A...
Lucifer.S03.COMPLETE.German....
Succession.S01.German.DD51.S...
Succession.S01.German.DD51.S...
Preacher.S03.COMPLETE.German...
Preacher.S03.COMPLETE.German...
Lucifer.S03.COMPLETE.German....
How.to.Party.with.Mom.2018.G...
Agenten.sterben.einsam.aka.W...
The.Mother.of.Tears.UNCUT.20...
Seine.Frau.hilft.Geld.verdie...

 
 
New.Girl.S06.COMPLETE.German.DD51.DL.1080p.AmazonHD.x264-TVS

Jahr: 2017
Genre: Komödie
Sprache: Deutsch AC3 | Englisch AC3
Laufzeit: 21min je Folge
Bitrate: 11 Mbps
Format: MKV
Größe: 1,8 GB je Folge
Release:

Beschreibung:

In der Comedy-Serie „New Girl“ geht es um die lebensfrohe Grundschullehrerin Jessica (Zooey Deschanel), die in der Liebe kein Glück hat. Nach ihrem jüngsten Beziehungsende zieht sie aus der gemeinsamen Wohnung mit ihrem Ex aus – und in die Wohnung dreier erwachsener Kindsköpfe ein. Durch die Nähe zum anderen Geschlecht beginnt die junge Frau langsam Männer zu verstehen.



General
Complete name                            : New.Girl.S06E01.Wir.kaufen.ein.Haus.German.DD51.DL.1080p.AmazonHD.x264-TVS\tvs-new-girl-dd51-dl-18p-azhd-x264-601.mkv
Format                                   : Matroska
Format version                           : Version 4 / Version 2
File size                                : 1.81 GiB
Duration                                 : 20mn 56s
Overall bit rate mode                    : Variable
Overall bit rate                         : 12.3 Mbps
Encoded date                             : UTC 2018-02-07 15:47:43
Writing application                      : mkvmerge v14.0.0 ('Flow') 64bit
Writing library                          : libebml v1.3.4 + libmatroska v1.4.5
DURATION                                 : 00:20:56.416000000
NUMBER_OF_FRAMES                         : 39263
NUMBER_OF_BYTES                          : 35179648
_STATISTICS_WRITING_APP                  : mkvmerge v14.0.0 ('Flow') 64bit
_STATISTICS_WRITING_DATE_UTC             : 2018-02-07 15:47:43
_STATISTICS_TAGS                         : BPS DURATION NUMBER_OF_FRAMES NUMBER_OF_BYTES

Video
ID                                       : 1
Format                                   : AVC
Format/Info                              : Advanced Video Codec
Format profile                           : [email protected]
Format settings, CABAC                   : Yes
Format settings, ReFrames                : 4 frames
Codec ID                                 : V_MPEG4/ISO/AVC
Duration                                 : 20mn 56s
Bit rate mode                            : Variable
Bit rate                                 : 11.4 Mbps
Maximum bit rate                         : 15.0 Mbps
Width                                    : 1 920 pixels
Height                                   : 1 080 pixels
Display aspect ratio                     : 16:9
Frame rate mode                          : Constant
Frame rate                               : 25.000 fps
Color space                              : YUV
Chroma subsampling                       : 4:2:0
Bit depth                                : 8 bits
Scan type                                : Progressive
Bits/(Pixel*Frame)                       : 0.220
Stream size                              : 1.67 GiB (93%)
Default                                  : Yes
Forced                                   : No
Color primaries                          : BT.709
Transfer characteristics                 : BT.709
Matrix coefficients                      : BT.709

Audio #1
ID                                       : 2
Format                                   : AC-3
Format/Info                              : Audio Coding 3
Mode extension                           : CM (complete main)
Format settings, Endianness              : Big
Codec ID                                 : A_AC3
Duration                                 : 20mn 56s
Bit rate mode                            : Constant
Bit rate                                 : 448 Kbps
Channel(s)                               : 6 channels
Channel positions                        : Front: L C R, Side: L R, LFE
Sampling rate                            : 48.0 KHz
Bit depth                                : 16 bits
Compression mode                         : Lossy
Stream size                              : 67.1 MiB (4%)
Language                                 : German
Default                                  : Yes
Forced                                   : No

Audio #2
ID                                       : 3
Format                                   : AC-3
Format/Info                              : Audio Coding 3
Mode extension                           : CM (complete main)
Format settings, Endianness              : Big
Codec ID                                 : A_AC3
Duration                                 : 20mn 56s
Bit rate mode                            : Constant
Bit rate                                 : 224 Kbps
Channel(s)                               : 2 channels
Channel positions                        : Front: L R
Sampling rate                            : 48.0 KHz
Bit depth                                : 16 bits
Compression mode                         : Lossy
Stream size                              : 33.5 MiB (2%)
Language                                 : English
Default                                  : No
Forced                                   : No

Text #1
ID                                       : 4
Format                                   : UTF-8
Codec ID                                 : S_TEXT/UTF8
Codec ID/Info                            : UTF-8 Plain Text
Language                                 : English
Default                                  : No
Forced                                   : No

Text #2
ID                                       : 5
Format                                   : UTF-8
Codec ID                                 : S_TEXT/UTF8
Codec ID/Info                            : UTF-8 Plain Text
Title                                    : SDH
Language                                 : English
Default                                  : No
Forced                                   : No

Text #3
ID                                       : 6
Format                                   : UTF-8
Codec ID                                 : S_TEXT/UTF8
Codec ID/Info                            : UTF-8 Plain Text
Language                                 : German
Default                                  : No
Forced                                   : No



Download:
Share-Online.biz Share-Online.bizShare-Online.bizShare-Online.biz
 

Kommentare