Articoli | Comentarios | Watch now!
 


 

DNS SERVER AENDERNum der staatlichen Zensur zu umgehen. Sollten wir von eurem Provider geseprrt werden, nutzt den TOR BROWSER oder ändert euren DNS SERVER.

Filmwünsche können bei uns im Forum abgegeben werden

Wir Speichern Nicht




 
 
 
Top Releases
Deadpool.2.Kinofassung.2018....
Nur.Gott.kann.mich.richten.2...
Red.Dog.Mein.treuer.Freund.2...
The.Kings.Ring.Die.Letzte.Sc...
Ghost.Stories.Glaubst.du.an....
Avengers.2012.MULTi.COMPLETE...
Der.Hauptmann.2017.German.AC...
Half.Nelson.2006.German.DL.1...
Half.Nelson.2006.German.720p...
The.Kings.Ring.2018.DUAL.COM...

Cinedubs
Skyscraper.2018.German.AC3LD...
Jurassic.World.2.Das.gefalle...
Jurassic.World.2.Das.gefalle...
Jurassic.World.2.Das.gefalle...
Skyscraper.2018.German.AC3LD...
Skyscraper.2018.German.AC3LD...
Die.Biene.Maja.2.Die.Honigsp...
Die.Biene.Maja.2.Die.Honigsp...
Loving.Pablo.2017.German.AC3...
Loving.Pablo.2017.German.AC3...

Neuerscheinungen 2017-18
The.End.2017.German.AC3.DL.1...
Tsotsi.2005.MULTi.COMPLETE.B...
Meuterei.auf.der.Todesinsel....
Undercover.Grandpa.2017.Germ...
Undercover.Grandpa.2017.Germ...
Ein.Hund.rettet.den.Sommer.2...
Ein.Hund.rettet.den.Sommer.2...
City.of.Joy.2016.German.DL.D...
City.of.Joy.2016.German.DL.D...
Stephanie.Das.Boese.in.ihr.2...

XXX
Mylfed.18.08.19.London.River...
Mylfed.18.07.17.Scarlett.Sag...
PornstarPlatinum.18.07.05.Jo...
PornFidelity.E757.Blair.Will...
NFBusty.18.07.06.Jessa.Rhode...
PornstarFisher.18.07.05.Juli...
Mylfed.18.07.26.Emily.Willis...
PlumperPass.18.07.06.Angel.D...
NewSensations.18.08.27.Lilly...
MomDrips.18.08.01.Ariella.Fe...
PornstarsLikeItBig.18.08.27....
NetVideoGirls.18.07.03.Gina....
NetVideoGirls.18.06.27.Heidi...
NaughtyOffice.18.07.06.Abell...
Nubiles.18.07.06.Adel.Morel....
MomDrips.18.07.25.Angelina.D...
Mylfed.18.08.02.Cytherea.Mar...
Nubiles.18.08.27.Maria.Rubio...
PornMegaLoad.18.07.05.Mischi...
MySistersHotFriend.18.07.05....

3D
Avengers.Infinity.War.3D.201...
Avengers.Infinity.War.3D.201...
Rampage.Big.Meets.Bigger.3D....
Rampage.Big.Meets.Bigger.3D....
Rampage.Big.Meets.Bigger.3D....
Winter.Games.3D.2013.DUAL.CO...
Tomb.Raider.3D.2018.German.7...
Rampage.Big.Meets.Bigger.3D....
Rampage.Big.Meets.Bigger.3D....
Tomb.Raider.3D.2018.MULTi.CO...
Pacific.Rim.Uprising.3D.2018...
Ready.Player.One.3D.2018.Ger...
Rampage.-.Big.Meets.Bigger.2...
Ready.Player.One.2018.3D.HOU...
Ready.Player.One.2018.3D.HSB...

Old_Stuff
Vikings.S02.German.DL.1080p....
Be.Kind.Rewind.Abgedreht.200...
Be.Kind.Rewind.Abgedreht.200...
Dracula.The.Dark.Lord.2012.G...
21.2008.German.DL.1080p.BluR...
Achtung.fertig.WK.Swissgerma...
The.Ouija.Exorcism.2015.MULT...
Meine.liebe.Rabenmutter.germ...
Da.Vincis.Demons.S01.Complet...
Eragon.Das.Vermaechtnis.der....
Adele.und.das.Geheimnis.des....
Die.fabelhafte.Welt.der.Amel...
Haus.des.Geldes.S01.German.M...
How.I.Met.Your.Mother.S01.Ge...
The.Dark.Knight.Rises.2012.M...

Filme
Scorpio.der.Killer.1973.Germ...
F.X.2.Die.toedliche.Illusion...
Gewagtes.Spiel.1992.German.A...
Flucht.Aus.L.A..GERMAN.1996....
Flucht.Aus.L.A..GERMAN.1996....
A.Quiet.Place.2018.German.DL...
The.Flash.2014.S04.GERMAN.72...
Gotham.S04.GERMAN.720p.HDTV....
Elementary.S06.GERMAN.DUBBED...
Silent.Assassin.2013.German....
3.Idiots.2009.German.AC3D.DL...
Proud.Mary.2018.German.DTS.D...
Proud.Mary.2018.German.DTS.7...
Geheimagent.Barrett.greift.e...
Geheimagent.Barrett.greift.e...
A.History.of.Violence.2005.G...
Toto.Der.Held.aka.Toto.le.he...
Narcos.S03.COMPLETE.German.A...
Irrtum.im.Jenseits.Remastere...
Irrtum.im.Jenseits.1946.Rema...
Gutland.2017.German.1080p.AM...
A.Beautiful.Day.2017.German....
A.Beautiful.Day.2017.German....
Gutland.2017.German.720p.AMZ...

 
 
This.Is.Us.S02.German.DD20.Dubbed.DL.720p.AmazonHD.x264-GDR

Jahr: 2017
Genre: Drama
Sprache: Deutsch AC3 | Englisch AC3
Laufzeit: 41min je Folge
Bitrate: 4800 Kbps
Format: MKV
Größe: 1,6 GB je Folge
Release:

Beschreibung:

Dramedy über eine Gruppe von Menschen, die allesamt am selben Tag geboren wurden: Das Ehepaar Jack und Rebecca ist gerade in ein neues Haus in Pittsburgh gezogen und erwartet die Geburt von Drillingen. Schauspieler Kevin ist sehr attraktiv und recht erfolgreich, allmählich beginnt er sich aber in seinem Leben zu langweilen. Seine Zwillingsschwester Kate ist das genaue Gegenteil: Sie ist mit sich selbst und vor allem ihren Essgewohnheiten unzufrieden, versucht sich vergeblich durch das Bepflastern ihrer Wohnung mit Post-its zu motivieren. Randall ist ein Anwalt für Wirtschaftsrecht, der in New York lebt. Er achtet sehr auf sein Äußeres und bildet mit seiner Ehefrau Beth ein gutes Team dabei, die beiden gemeinsamen Töchter zu erziehen, die sich noch im Kleinkindalter befinden.

 

enthaltene Folgen:

This.Is.Us.S02E01.Der.Ratschlag.eines.Vaters.German.DD20.Dubbed.DL.720p.AmazonHD.x264-GDR

This.Is.Us.S02E02.Die.Manny.Show.German.DD20.Dubbed.DL.720p.AmazonHD.x264-GDR

This.Is.Us.S02E03.Deja.Vu.German.DD20.Dubbed.DL.720p.AmazonHD.x264-GDR

This.Is.Us.S02E04.Es.ist.noch.da.German.DD20.Dubbed.DL.720p.AmazonHD.x264-GDR

This.Is.Us.S02E05.Brueder.German.DD20.Dubbed.DL.720p.AmazonHD.x264-GDR

This.Is.Us.S02E06.In.den.Zwanzigern.German.DD20.Dubbed.DL.720p.AmazonHD.x264-GDR

This.Is.Us.S02E07.Enttaeuschungen.German.DD20.Dubbed.DL.720p.AmazonHD.x264-GDR NEU

This.Is.Us.S02E08.Die.Nummer.Eins.German.DD20.Dubbed.DL.720p.AmazonHD.x264-GDR NEU



General
Complete name                            : This.Is.Us.S02E01.Der.Ratschlag.eines.Vaters.German.DD20.Dubbed.DL.720p.AmazonHD.x264-GDR.mkv
Format                                   : Matroska
Format version                           : Version 4 / Version 2
File size                                : 1.62 GiB
Duration                                 : 41mn 28s
Overall bit rate                         : 5 574 Kbps
Movie name                               : GDR by www.serienjunkies.org
Encoded date                             : UTC 2018-05-01 16:28:22
Writing application                      : mkvmerge v8.2.0 ('World of Adventure') 32bit
Writing library                          : libebml v1.3.1 + libmatroska v1.4.2
DURATION                                 : 00:41:28.928000000
NUMBER_OF_FRAMES                         : 77779
NUMBER_OF_BYTES                          : 119468544
_STATISTICS_WRITING_APP                  : mkvmerge v8.2.0 ('World of Adventure') 32bit
_STATISTICS_WRITING_DATE_UTC             : 2018-05-01 16:28:22
_STATISTICS_TAGS                         : BPS DURATION NUMBER_OF_FRAMES NUMBER_OF_BYTES

Video
ID                                       : 1
Format                                   : AVC
Format/Info                              : Advanced Video Codec
Format profile                           : High@L4.1
Format settings, CABAC                   : Yes
Format settings, ReFrames                : 9 frames
Codec ID                                 : V_MPEG4/ISO/AVC
Duration                                 : 41mn 28s
Bit rate                                 : 4 887 Kbps
Width                                    : 1 280 pixels
Height                                   : 720 pixels
Display aspect ratio                     : 16:9
Frame rate mode                          : Constant
Frame rate                               : 25.000 fps
Original frame rate                      : 23.976 fps
Color space                              : YUV
Chroma subsampling                       : 4:2:0
Bit depth                                : 8 bits
Scan type                                : Progressive
Bits/(Pixel*Frame)                       : 0.212
Stream size                              : 1.42 GiB (88%)
Writing library                          : x264 core 148 r2638 7599210
Encoding settings                        : cabac=1 / ref=9 / deblock=1:-3:-3 / analyse=0x3:0x133 / me=umh / subme=10 / psy=1 / psy_rd=1.00:0.00 / mixed_ref=1 / me_range=48 / chroma_me=1 / trellis=2 / 8x8dct=1 / cqm=0 / deadzone=21,11 / fast_pskip=0 / chroma_qp_offset=-2 / threads=12 / lookahead_threads=2 / sliced_threads=0 / nr=0 / decimate=0 / interlaced=0 / bluray_compat=0 / constrained_intra=0 / bframes=9 / b_pyramid=0 / b_adapt=2 / b_bias=0 / direct=3 / weightb=1 / open_gop=0 / weightp=2 / keyint=240 / keyint_min=23 / scenecut=40 / intra_refresh=0 / rc=crf / mbtree=0 / crf=17.0 / qcomp=0.60 / qpmin=10 / qpmax=51 / qpstep=4 / ip_ratio=1.40 / pb_ratio=1.30 / aq=3:0.70
Language                                 : German
Default                                  : Yes
Forced                                   : No

Audio #1
ID                                       : 2
Format                                   : AC-3
Format/Info                              : Audio Coding 3
Mode extension                           : CM (complete main)
Format settings, Endianness              : Big
Codec ID                                 : A_AC3
Duration                                 : 41mn 28s
Bit rate mode                            : Constant
Bit rate                                 : 192 Kbps
Channel(s)                               : 2 channels
Channel positions                        : Front: L R
Sampling rate                            : 48.0 KHz
Bit depth                                : 16 bits
Compression mode                         : Lossy
Stream size                              : 57.0 MiB (3%)
Language                                 : German
Default                                  : Yes
Forced                                   : No

Audio #2
ID                                       : 3
Format                                   : AC-3
Format/Info                              : Audio Coding 3
Mode extension                           : CM (complete main)
Format settings, Endianness              : Big
Codec ID                                 : A_AC3
Duration                                 : 41mn 28s
Bit rate mode                            : Constant
Bit rate                                 : 384 Kbps
Channel(s)                               : 6 channels
Channel positions                        : Front: L C R, Side: L R, LFE
Sampling rate                            : 48.0 KHz
Bit depth                                : 16 bits
Compression mode                         : Lossy
Stream size                              : 114 MiB (7%)
Language                                 : English
Default                                  : No
Forced                                   : No



Download:
Share-Online.biz Share-Online.bizShare-Online.bizShare-Online.biz | Rapidgator.net Rapidgator.netRapidgator.netRapidgator.net
 

Kommentare